Правила форума

  • В этом разделе создание новых тем Запрещено.
  • Для создания новых тем пользуйтесь Корневым разделом DVD и HD фильмы.
Начать новую темуОтветить на тему  [ Сообщений: 7 ] 
Торрент файл
Размер: 4.37 GB • Зарегистрирован: 5 лет 7 месяцев • Статус: Проверено
Скачан: 1479 раз • Желающих скачать: 0 • Поблагодарили: 192 раза
 Раздают: 0  |  0 KB/s  ]   Качают: 0  |  0 KB/s  ] 
 Полного источника не было 1 день 21 час 
Сообщения
 Добавлено: 2011-04-25 17:31
Аватара пользователя
Стаж: 9 лет
Возраст: 27
Сообщений: 1386
Спасибок: 16114
Лайков: 14
Изображение

Шерлок Холмс / Sherlock Holmes

«От них не скроешься»

Год выпуска: 2009
Страна: Изображение США, Изображение Германия
Жанр: боевик, триллер, драма, комедия, криминал, детектив, приключения
Продолжительность: 02:08:24
Перевод: Профессиональный (полное дублирование)

Режиссер: Гай Ричи
Сценарий: Майкл Роберт Джонсон, Энтони Пекэм, Саймон Кинберг
Продюсер: Сьюзен Дауни, Дэн Лин, Джоэл Силвер
Оператор: Филипп Русло
Композитор: Ханс Циммер

В ролях: Роберт Дауни мл., Джуд Лоу, Рэйчел МакАдамс, Марк Стронг, Эдди Марсан, Роберт Мэйллет, Джеральдин Джеймс, Келли Райлли, Уильям Хьюстон, Ганс Мэтисон

Описание: Величайший в истории сыщик Шерлок Холмс вместе со своим верным соратником Ватсоном вступают в схватку, требующую нешуточной физической и умственной подготовки, ведь их враг представляет угрозу для всего Лондона.

Релиз: Изображение

Раздача: Изображение

Изображение

Доп. информация
Бюджет: $90 000 000
Сборы в мире: + $314 001 185 = $523 029 864
Сборы в США: $209 028 679
Сборы в России: $16 491 058
Премьера (мир): 24 декабря 2009
Премьера (РФ): 31 декабря 2009, «Каро-Премьер»
Релиз на DVD: 10 февраля 2011, «CP-Digital»
Рейтинг PG-13 — Parents strongly cautioned. Дети до 13 лет допускаются на фильм только с родителями
Изображение
Настоятельное предостережение родителям. Некоторый материал может быть неподходящим для детей до 13 лет. Данный рейтинг показывает, что оценённый фильм может быть неподходящим для детей. Родители должны быть особенно осторожны, разрешая своим маленьким детям просмотр. Грубое или продолжительное насилие отсутствует; сексуальная ориентация на наготу отсутствует; некоторые сцены употребления наркотиков могут присутствовать; можно услышать единичные употребления грубой сексуальной лексики.
Свернуть
Свернуть
Знаете ли вы, что...
* Во время съемок боевой сцены Роберт Мэйллет (бывший рестлер) случайно нокаутировал Роберта Дауни-младшего.
* На ранней стадии производства картины планировалось, что роль Доктора Ватсона дадут Колину Фаррелу, однако позже режиссер отдал предпочтение кандидатуре Джуда Лоу.
* На роль доктора Ватсона было рассмотрено свыше 20-ти актёров, среди них - Джон Кьюсак, Джерард Батлер и Крис Пайн.
* События фильма предшествуют встрече профессора Мориарти и Шерлока Холмса, но при этом Ватсон уже помолвлен, что несколько противоречит событиям, описанным Артуром Конан Дойлем.
* Роберт принял участие в создании гардероба сыщика и сам купил в лондонском магазине «Lock & Co» шляпу и трубку.
* Съемки проходили в окрестностях Лондона и Манчестера, где сохранилось много живописных складских помещений XIX века. А интерьер дома 221б по Бейкер-стрит собрали из реквизита, который использовался для обустройства жилища Сириуса Блэка в фильме «Гарри Поттер и Орден Феникса».
* Герои фильма говорят о радиоволнах. Термин «радио» впервые был использован в 1907 году.
* В лаборатории Реордана Шерлок Холмс говорит о том, что ощущает запах «кэнди-флосс» («сахарные волоконца», сахарная вата). Это лакомство было изобретено в 1894 году, но впервые представлено публике только в 1904-м.
* В одном из кадров мы видим здание Биг Бена и стоящее рядом с ним здание Портикулис (Portcullis House), где находятся кабинеты членов британского парламента. Портикулис был построен в 1993 году.
* В числе прочих обвинений, на основе которых лорду Блэквуду произносят смертный приговор, звучит «занятие черной магией». После Закона о колдовстве 1735 года черная магия не считалась в Великобритании преступлением, караемым смертной казнью. Впрочем, по совокупности других лорд Блэквуд всё равно отправился бы на эшафот.
Свернуть
Награды и номинации
Изображение
Жорж, 2011 год
Номинации (1):
* Лучший зарубежный экшн



Изображение
Оскар, 2010 год
Номинации (2):
* Лучшие декорации
* Лучший саундтрек


Изображение
Золотой глобус, 2010 год
Победитель (1):
* Лучшая мужская роль (комедия или мюзикл) (Роберт Дауни мл.)



Изображение
Премия канала «MTV», 2010 год
Номинации (1):
* Лучшая драка
Свернуть

Изображение

Качество: BDRip 1080p
Формат: MKV
Видео: 1920x1080, 4419 Кбит/сек, 23,976 кадр/сек, AVC, x264, 16/9, 0.085 Бит/(Пиксели*Кадры)
Аудио: AC-3, 448 Кбит/сек, 6 канала(ов), 48,0 КГц


Скриншоты

Изображение

Изображение

Изображение

Свернуть
MI
Формат : Matroska
Размер файла : 4,37 Гбайт
Продолжительность : 2 ч. 8 м.
Общий поток : 4869 Кбит/сек
Название фильма : Rip by Tembr
Дата кодирования : UTC 2011-04-13 10:16:25
Программа кодирования : mkvmerge v3.2.0 ('Beginnings') built on Feb 12 2010 16:46:17
Библиотека кодирования : libebml v0.7.9 + libmatroska v0.8.1

Видео
Идентификатор : 1
Формат : AVC
Формат/Информация : Advanced Video Codec
Профиль формата : High@L4.1
Параметр CABAC формата : Да
Параметр ReFrames формата : 3 кадра
Идентификатор кодека : V_MPEG4/ISO/AVC
Продолжительность : 2 ч. 8 м.
Вид битрейта : Переменный
Битрейт : 4419 Кбит/сек
Максимальный битрейт : 15,0 Мбит/сек
Ширина : 1920 пикс.
Высота : 1080 пикс.
Соотношение сторон : 16:9
Частота кадров : 23,976 кадр/сек
Цветовое пространство : YUV
Подвыборка цветности : 4:2:0
Битовая глубина : 8 бит
Тип развёртки : Прогрессивная
Бит/(Пиксели*Кадры) : 0.089
Размер потока : 3,88 Гбайт (89%)
Заголовок : Шерлок Холмс.[NoLimits-Team.ru]
Библиотека кодирования : x264 core 114 r1913 5fd3dce
Настройки программы : cabac=1 / ref=1 / deblock=1:0:0 / analyse=0x3:0x3 / me=dia / subme=1 / psy=1 / psy_rd=0.00:0.00 / mixed_ref=0 / me_range=16 / chroma_me=1 / trellis=0 / 8x8dct=1 / cqm=0 / deadzone=21,11 / fast_pskip=1 / chroma_qp_offset=0 / threads=3 / sliced_threads=0 / slices=4 / nr=0 / decimate=1 / interlaced=0 / constrained_intra=0 / bframes=3 / b_pyramid=1 / b_adapt=1 / b_bias=0 / direct=1 / weightb=1 / open_gop=0 / weightp=1 / keyint=24 / keyint_min=1 / scenecut=40 / intra_refresh=0 / rc_lookahead=0 / rc=abr / mbtree=0 / bitrate=4419 / ratetol=1.0 / qcomp=0.60 / qpmin=0 / qpmax=69 / qpstep=4 / vbv_maxrate=15000 / vbv_bufsize=15000 / nal_hrd=vbr / ip_ratio=1.10 / pb_ratio=1.10 / aq=1:1.00
Язык : English

Аудио
Идентификатор : 2
Формат : AC-3
Формат/Информация : Audio Coding 3
Расширение режима : CM (complete main)
Идентификатор кодека : A_AC3
Продолжительность : 2 ч. 8 м.
Вид битрейта : Постоянный
Битрейт : 448 Кбит/сек
Каналы : 6 каналов
Расположение каналов : Front: L C R, Side: L R, LFE
Частота : 48,0 КГц
Битовая глубина : 16 бит
Метод сжатия : С потерями
Размер потока : 411 Мбайт (9%)
Заголовок : Профессиональный (дублирование)
Язык : Russian
Свернуть
Оформление раздачи:
Совунья


Последний раз редактировалось Gloom 2011-04-25 17:59, всего редактировалось 1 раз.
Не в сети
Профиль  
 Добавлено: 2011-04-25 19:28 (спустя 1 час 56 минут)
Кинокомментатор
Аватара пользователя
Стаж: 9 лет 1 месяц
Сообщений: 1332
Лайков: 54
мооожно посмотреть)

Добавлено спустя 4 минуты:
блииин((( ну ещё кто нить давайте посмотрим и скачаем!)
Не в сети
Профиль  
 Добавлено: 2011-04-26 20:54 (спустя 1 день 1 час)
Кинокомментатор
Аватара пользователя
Стаж: 9 лет 1 месяц
Сообщений: 1332
Лайков: 54
мягко говоря шикааарное кино!) а завтра будет Рокенрольщик) Гай Риччи рулит:) что тут ещё сказать? смотрите! сами всё узнаете...
Не в сети
Профиль  
 Добавлено: 2011-12-05 21:19 (спустя 7 месяцев)
Стаж: 7 лет 2 месяца
Сообщений: 357
Спасибок: 86
Лайков: 1

Bronks:

мягко говоря шикааарное кино!) а завтра будет Рокенрольщик) Гай Риччи рулит:) что тут ещё сказать? смотрите! сами всё узнаете...
Полностью согласен!
Не в сети
Профиль  
 Добавлено: 2012-01-04 08:17 (спустя 29 дней)
Аватара пользователя
Стаж: 9 лет
Сообщений: 326
Спасибок: 182
Качество Г-но! Никак не в раздел HD Video
Не в сети
Профиль  
 Добавлено: 2012-11-30 13:45 (спустя 10 месяцев)
Стаж: 4 года 6 месяцев
Сообщений: 9
подбавте скорости,плиз )))
Не в сети
Профиль  
 Добавлено: 2013-04-22 04:53 (спустя 4 месяца 21 день)
Стаж: 4 года 11 месяцев
Сообщений: 38
скорости
Не в сети
Профиль  
Начать новую темуОтветить на тему  [ Сообщений: 7 ] 
Вы не можете начинать темы
Вы не можете отвечать на сообщения
Вы не можете редактировать свои сообщения
Вы не можете удалять свои сообщения