Правила форума

  • В этом разделе создание новых тем Запрещено.
  • Для создания новых тем пользуйтесь Корневым разделом DVD и HD фильмы.
Начать новую темуОтветить на тему  [ Сообщений: 2 ] 
Торрент файл
Размер: 8.96 GB • Зарегистрирован: 5 лет 9 месяцев • Статус: Проверено
Скачан: 64 раза • Желающих скачать: 0 • Поблагодарили: 19 раз
 Раздают: 0  |  0 KB/s  ]   Качают: 0  |  0 KB/s  ] 
 Полного источника не было 1 год 8 месяцев 
Сообщения
 Добавлено: 2011-03-06 14:56
Модератор релиз-группы
Аватара пользователя
Стаж: 9 лет 1 месяц
Возраст: 97
Сообщений: 11660
Спасибок: 6533
Лайков: 269
Шесть дней, семь ночей / Six Days Seven Nights

Изображение


Год выпуска: 1998
Страна: США
Жанр: Боевик, комедия, мелодрама, приключения
Продолжительность: 01:41:56
Перевод: Профессиональный (дубляж)
Дублеры: Станислав Концевич,Галина Чигинская,Владимир Маслаков,Елена Павловская,Татьяна Иванова

Режиссёр: Иван Рейтман
В ролях: Харрисон Форд, Энн Хеч, Дэвид Швиммер, Жаклин Обрадорс, Темура Моррисон, Эллисон Дженни, Дуглас Уэстон, Клифф Кертис, Дэнни Трехо, Бен Боуд
Описание: Небольшой самолет терпит катастрофу на необитаемом острове. Отважный летчик и его очаровательная пассажирка оказались совершенно одни среди дикой природы. Они отчаянно пытаются сообщить о себе, но не знают, что их уже давно перестали искать. Наконец, впервые за эти дни на пустынном горизонте показался странный корабль, который причалил к затерянному острову.
Но вместо того, чтобы улыбнуться невезучей парочке, судьба снова посмеялась над ними. Вооруженные до зубов пираты так не похожи на долгожданных спасителей! Пилот и его спутница так стремились оказаться в веселой компании. Теперь они хотят снова остаться наедине…
Изображение 7.291 голосов: 5 971

Изображение
Качество: HDTVRip, 1080i
Формат: TS
Видео кодек: MPEG-2
Аудио кодек: AC3 (Dolby Digital)
Видео: 1920x1080, MPEG-2, 29.97 fps, 12.6 Mbps
Аудио : Русский AC3, 3ch (L,R, Subw) 384 kbps[Профессиональный (дубляж)]
Скриншоты
Изображение

Изображение

Изображение

Изображение

Изображение
Свернуть

Mi
Format : MPEG-TS
File size : 8.96 GiB
Duration : 1h 41mn
Overall bit rate : 12.6 Mbps
Maximum Overall bit rate : 35.5 Mbps

Video
ID : 4113 (0x1011)
Menu ID : 1 (0x1)
Format : MPEG Video
Format version : Version 2
Format profile : Main@High
Format settings, BVOP : Yes
Format settings, Matrix : Default
Codec ID : 2
Duration : 1h 41mn
Bit rate mode : Variable
Bit rate : 11.6 Mbps
Nominal bit rate : 25.0 Mbps
Width : 1 920 pixels
Height : 1 080 pixels
Display aspect ratio : 16:9
Frame rate : 29.970 fps
Standard : Component
Color space : YUV
Chroma subsampling : 4:2:0
Bit depth : 8 bits
Compression mode : Lossy
Bits/(Pixel*Frame) : 0.186
Stream size : 8.24 GiB (92%)

Audio
ID : 4352 (0x1100)
Menu ID : 1 (0x1)
Format : AC-3
Format/Info : Audio Coding 3
Mode extension : CM (complete main)
Codec ID : 129
Duration : 1h 41mn
Bit rate mode : Constant
Bit rate : 384 Kbps
Channel(s) : 3 channels
Channel positions : Front: L R, LFE
Sampling rate : 48.0 KHz
Bit depth : 16 bits
Compression mode : Lossy
Stream size : 280 MiB (3%)
Language : Russian

Свернуть
Не в сети
Профиль  
 Добавлено: 2012-02-12 19:31 (спустя 11 месяцев)
Стаж: 6 лет
Сообщений: 44
Ребят поддайте газку на пару дней. Заранее спасибо!
Не в сети
Профиль  
Начать новую темуОтветить на тему  [ Сообщений: 2 ] 
Вы не можете начинать темы
Вы не можете отвечать на сообщения
Вы не можете редактировать свои сообщения
Вы не можете удалять свои сообщения