Правила форума

  • В этом разделе создание новых тем Запрещено.
  • Для создания новых тем пользуйтесь Корневым разделом DVD и HD фильмы.
Начать новую темуОтветить на тему  [ Сообщений: 3 ] 
Торрент файл
Размер: 4.39 GB • Зарегистрирован: 4 года 1 месяц • Статус: Проверено
Скачан: 53 раза • Желающих скачать: 0 • Поблагодарили: 22 раза
 Раздают: 0  |  0 KB/s  ]   Качают: 0  |  0 KB/s  ] 
 Полного источника не было 2 года 10 месяцев 
Сообщения
 Добавлено: 2012-11-04 19:22
DVD Release Group
Аватара пользователя
Стаж: 7 лет 1 месяц
Сообщений: 3565
Спасибок: 247519
Лайков: 1020
Шесть пуль

6 Bullets


Изображение


Год выпуска: 2012
Страна: США / Motion Picture Corporation of America (MPCA), Rodin Entertainment See more
Жанр: Боевик, триллер, криминал
Продолжительность: 01:54:52
Перевод: Профессиональный (многоголосый)
Субтитры: Нет
Режиссер: Эрни Барбараш
В ролях: Жан-Клод Ван Дамм, Джо Флениган, Бьянка Бри, Анна-Луиза Плауман, Кристофер Ван Варенберг
Описание: Фильм расскажет о бывшем наёмнике, занимавшимся розыском пропавших детей, которому предстоит отыскать дочь бывшего бойца смешанных единоборств.
Кинопоиск: 6.0 (669)
IMDb: 6.2 (3192)
Sample:
http://multi-up.com/785810
Дополнительно: Сохранены оригинальные чаптеры как на Blu-Ray.
Качество: BDRip 720p
Формат: MKV
Видео кодек: H.264
Аудио кодек: AC3, DTS
Видео: 1280x720 23.98fps 3668kbps
Аудио:
Audio Rus: 48kHz 2ch 192Kbps
Audio Eng: 48kHz 6ch 1510Kbps
"MediaInfo"
Формат : Matroska
Версия формата : Version 2
Размер файла : 4,39 Гбайт
Продолжительность : 1 ч. 54 м.
Общий поток : 5478 Кбит/сек
Название фильма : Шесть пуль
Дата кодирования : UTC 2012-11-04 15:12:15
Программа кодирования : mkvmerge v4.9.1 ('Ich will') built on Jul 11 2011 23:53:15
Библиотека кодирования : libebml v1.2.1 + libmatroska v1.1.1

Видео
Идентификатор : 1
Формат : AVC
Формат/Информация : Advanced Video Codec
Профиль формата : High@L4.1
Параметр CABAC формата : Да
Параметр ReFrames формата : 9 кадров
Идентификатор кодека : V_MPEG4/ISO/AVC
Продолжительность : 1 ч. 54 м.
Битрейт : 3668 Кбит/сек
Ширина : 1280 пикселей
Высота : 720 пикселей
Соотношение сторон : 16:9
Частота кадров : 23,976 кадра/сек
Цветовое пространство : YUV
Субдискретизация насыщенности : 4:2:0
Битовая глубина : 8 бит
Тип развёртки : Прогрессивная
Бит/(Пиксели*Кадры) : 0.166
Размер потока : 2,94 Гбайт (67%)
Заголовок : 6.Bullets.2012.720p.BluRay.DTS.x264-TayTO
Библиотека кодирования : x264 core 128 r2216 198a7ea
Настройки программы : cabac=1 / ref=9 / deblock=1:-3:-3 / analyse=0x3:0x113 / me=tesa / subme=11 / psy=1 / psy_rd=1.10:0.00 / mixed_ref=1 / me_range=16 / chroma_me=1 / trellis=2 / 8x8dct=1 / cqm=0 / deadzone=21,11 / fast_pskip=0 / chroma_qp_offset=-2 / threads=12 / lookahead_threads=2 / sliced_threads=0 / nr=0 / decimate=0 / interlaced=0 / bluray_compat=0 / constrained_intra=0 / bframes=9 / b_pyramid=2 / b_adapt=2 / b_bias=0 / direct=3 / weightb=1 / open_gop=0 / weightp=2 / keyint=250 / keyint_min=23 / scenecut=40 / intra_refresh=0 / rc=crf / mbtree=0 / crf=17.0 / qcomp=0.60 / qpmin=0 / qpmax=69 / qpstep=4 / ip_ratio=1.40 / pb_ratio=1.30 / aq=1:0.65
Язык : English
Default : Да
Forced : Да
Коэффициенты матрицы : BT.709-5, BT.1361, IEC 61966-2-4 709, SMPTE RP177

Аудио #1
Идентификатор : 2
Формат : AC-3
Формат/Информация : Audio Coding 3
Расширение режима : CM (complete main)
Идентификатор кодека : A_AC3
Продолжительность : 1 ч. 54 м.
Вид битрейта : Постоянный
Битрейт : 192 Кбит/сек
Каналы : 2 канала
Расположение каналов : Front: L R
Частота : 48,0 КГц
Битовая глубина : 16 бит
Метод сжатия : С потерями
Размер потока : 158 Мбайт (4%)
Заголовок : DD 2.0 @ 192 kbps - MVO
Язык : Russian
Default : Да
Forced : Да

Аудио #2
Идентификатор : 3
Формат : DTS
Формат/Информация : Digital Theater Systems
Идентификатор кодека : A_DTS
Продолжительность : 1 ч. 54 м.
Вид битрейта : Постоянный
Битрейт : 1510 Кбит/сек
Каналы : 6 каналов
Расположение каналов : Front: L C R, Side: L R, LFE
Частота : 48,0 КГц
Битовая глубина : 24 бит
Метод сжатия : С потерями
Размер потока : 1,21 Гбайт (28%)
Заголовок : DTS 5.1 @ 1536 kbps
Язык : English
Default : Нет
Forced : Нет

Меню
00:00:00.000 : en:00:00:00.000
00:10:50.567 : en:00:10:50.567
00:18:49.754 : en:00:18:49.754
00:28:00.554 : en:00:28:00.554
00:35:29.502 : en:00:35:29.502
00:44:44.265 : en:00:44:44.265
00:57:33.075 : en:00:57:33.075
01:07:34.509 : en:01:07:34.509
01:16:18.699 : en:01:16:18.699
01:27:09.266 : en:01:27:09.266
01:35:15.543 : en:01:35:15.543
01:47:03.542 : en:01:47:03.542
Свернуть

"Скриншоты"
Изображение
Изображение
Изображение
Изображение
Изображение
Свернуть

Раздача группы:
Изображение
Не в сети
Профиль  
 Добавлено: 2012-11-04 22:09 (спустя 2 часа 47 минут)
Модератор
Аватара пользователя
Стаж: 8 лет
Возраст: 106
Сообщений: 1256
Спасибок: 2108
Хм, Профессиональный (многоголосый): 48kHz 2ch 192Kbps
Cкрытый текст
Изображение
Свернуть
_________________
Одни отстаивают свои права — другие отсиживают...
Не можешь найти любимый фильм в DVD5,9; HDDVD; BLU-RAY; Blu-ray>DVD5?Попроси об этом нас DVD Release Group
Изображение
Не в сети
Профиль  
 Добавлено: 2012-11-05 08:09 (спустя 9 часов)
DVD Release Group
Аватара пользователя
Стаж: 7 лет 1 месяц
Сообщений: 3565
Спасибок: 247519
Лайков: 1020
Luciferchik
Так это и не лицензия.
Не в сети
Профиль  
Начать новую темуОтветить на тему  [ Сообщений: 3 ] 
Вы не можете начинать темы
Вы не можете отвечать на сообщения
Вы не можете редактировать свои сообщения
Вы не можете удалять свои сообщения