Правила форума

  • В этом разделе создание новых тем Запрещено.
  • Для создания новых тем пользуйтесь Корневым разделом DVD и HD фильмы.
Начать новую темуОтветить на тему  [ Сообщений: 2 ] 
Торрент файл
Размер: 19.35 GB • Зарегистрирован: 3 года 10 месяцев • Статус: Проверено
Скачан: 19 раз • Желающих скачать: 0 • Поблагодарили: 5 раз
 Раздают: 0  |  0 KB/s  ]   Качают: 0  |  0 KB/s  ] 
 Полного источника не было 3 года 2 месяца 
Сообщения
 Добавлено: 2013-01-05 10:11
Модератор релиз-группы
Аватара пользователя
Стаж: 9 лет 1 месяц
Возраст: 97
Сообщений: 11659
Спасибок: 6530
Лайков: 269
Шестой день / The 6th Day

Изображение


Год выпуска: 2000
Страна: США
Жанр: Боевик, Фантастика, Триллер
Продолжительность: 02:03:34
Перевод №1: Профессиональный (дублированный)
Перевод №2: Профессиональный (многоголосый закадровый, Карусель)
Перевод №3: Профессиональный (многоголосый закадровый, С.Р.И.)
Перевод №4: Авторский (одноголосый закадровый, А.Гаврилов)
Перевод №5: Авторский (одноголосый закадровый, Ю.Живов)
Субтитры: Русские, Английские

Режиссер: Роджер Споттисвуд

В ролях: Арнольд Шварценеггер, Майкл Рапапорт, Тони Голдуин, Майкл Рукер, Сара Уинтер, Уэнди Крюсон
Описание: В начале третьего тысячелетия самым суровым законом стал "закон Шестого дня". Он запрещал клонирование людей и создание искусственных копий человека. Но огромная подпольная империя вопреки запрету выращивает человечество нового будущего, сонмы управляемых теней. Налаженная машина преступления не давала сбоев, пока в ее совершенный механизм не вмешалась случайность: пилот вертолета Адам Гибсон неожиданно приоткрыл непроницаемую завесу заговора. Теперь он – последний рубеж обороны, отделяющий цивилизацию от общества зомби.
Изображение
Качество: Blu-ray Rip 1080p
Формат: MKV
Видео: MPEG-4 AVC (H264), 1920x800, 23.976 fps, High Profile 4.1, ~15000 kbps avg, bit/(pixel*frame) 0.407
Аудио №1: Russian: 48 kHz, AC3, 3/2 (L,C,R,l,r) + LFE ch, ~640.00 kbps avg дубляж
Аудио №2: Russian: 48 kHz, DTS, 3/2 (L,C,R,l,r) + LFE ch, ~1510.00 kbps avg многоголосый закадровый (Карусель)
Аудио №3: Russian: 48 kHz, DTS, 3/2 (L,C,R,l,r) + LFE ch, ~755.00 kbps avg многоголосый закадровый (DVD R7 С.Р.И.)
Аудио №4: Russian: 48 kHz, DTS, 3/2 (L,C,R,l,r) + LFE ch, ~1510.00 kbps avg одноголосый закадровый (А.Гаврилов)
Аудио №5: Russian: 48 kHz, DTS, 3/2 (L,C,R,l,r) + LFE ch, ~1510.00 kbps avg одноголосый закадровый (Ю.Живов)
Аудио №6: English: 48 kHz, DTS, 3/2 (L,C,R,l,r) + LFE ch, ~1510.00 kbps avg Original
Субтитры : Russian, English (Softsub SRT)
"Скриншоты"

Изображение

Изображение

Изображение

Изображение
Свернуть
Mi
General
Unique ID : 241057126714455069088760442892334686173 (0xB559E9F309FFC16E920747AC58145FDD)
Complete name : D:\The 6th Day [Шестой день] (2000) 1920x800 BDRip RusEngSubsChpt.mkv
Format : Matroska
Format version : Version 4 / Version 2
File size : 19.4 GiB
Duration : 2h 3mn
Overall bit rate : 22.4 Mbps
Movie name : -=RbM=-
Encoded date : UTC 2010-02-22 21:41:31
Writing application : mkvmerge v5.9.0 ('On The Loose') built on Dec 9 2012 15:37:01
Writing library : libebml v1.3.0 + libmatroska v1.4.0

Video
ID : 1
Format : AVC
Format/Info : Advanced Video Codec
Format profile : High@L4.1
Format settings, CABAC : Yes
Format settings, ReFrames : 5 frames
Codec ID : V_MPEG4/ISO/AVC
Duration : 2h 3mn
Bit rate : 15.0 Mbps
Width : 1 920 pixels
Height : 800 pixels
Display aspect ratio : 2.40:1
Frame rate mode : Constant
Frame rate : 23.976 fps
Color space : YUV
Chroma subsampling : 4:2:0
Bit depth : 8 bits
Scan type : Progressive
Bits/(Pixel*Frame) : 0.407
Stream size : 12.5 GiB (65%)
Title : 65,5% of the original
Writing library : x264 core 129 r2230+696+36 4446aa2 tMod+MixAQ [8-bit@all X86_64]
Encoding settings : cabac=1 / ref=5 / deblock=1:-3:-3 / analyse=0x3:0x133 / me=umh / subme=11 / psy=1 / fade_compensate=0.00 / psy_rd=1.20:0.00 / mixed_ref=1 / me_range=48 / chroma_me=1 / trellis=2 / 8x8dct=1 / cqm=0 / deadzone=21,11 / fast_pskip=0 / chroma_qp_offset=-2 / threads=12 / lookahead_threads=2 / sliced_threads=0 / nr=0 / decimate=0 / interlaced=0 / bluray_compat=0 / constrained_intra=0 / fgo=0 / bframes=12 / b_pyramid=2 / b_adapt=2 / b_bias=0 / direct=3 / weightb=1 / open_gop=0 / weightp=2 / keyint=250 / keyint_min=23 / scenecut=40 / intra_refresh=0 / rc_lookahead=120 / rc=2pass / mbtree=1 / bitrate=15000 / ratetol=1.0 / qcomp=0.70 / qpmin=0 / qpmax=69 / qpstep=4 / cplxblur=20.0 / qblur=0.5 / ip_ratio=1.40 / aq=4 / aq-strength=0.90 / aq-sensitivity=10.00 / aq-ifactor=1.00 / aq-pfactor=1.00 / aq-bfactor=1.00 / aq2=0
Language : English
Default : Yes
Forced : No
Color primaries : BT.709
Transfer characteristics : BT.709
Matrix coefficients : BT.709

Audio #1
ID : 2
Format : AC-3
Format/Info : Audio Coding 3
Mode extension : CM (complete main)
Format settings, Endianness : Big
Codec ID : A_AC3
Duration : 2h 3mn
Bit rate mode : Constant
Bit rate : 640 Kbps
Channel(s) : 6 channels
Channel positions : Front: L C R, Side: L R, LFE
Sampling rate : 48.0 KHz
Bit depth : 16 bits
Compression mode : Lossy
Stream size : 566 MiB (3%)
Title : Dub AC3 6ch 640kbps
Language : Russian
Default : Yes
Forced : No

Audio #2
ID : 3
Format : DTS
Format/Info : Digital Theater Systems
Mode : 16
Format settings, Endianness : Big
Codec ID : A_DTS
Duration : 2h 3mn
Bit rate mode : Constant
Bit rate : 1 509 Kbps
Channel(s) : 6 channels
Channel positions : Front: L C R, Side: L R, LFE
Sampling rate : 48.0 KHz
Bit depth : 16 bits
Compression mode : Lossy
Stream size : 1.30 GiB (7%)
Title : MVO DTS 6ch 1510kbps (Карусель)
Language : Russian
Default : No
Forced : No

Audio #3
ID : 4
Format : DTS
Format/Info : Digital Theater Systems
Mode : 16
Format settings, Endianness : Big
Codec ID : A_DTS
Duration : 2h 3mn
Bit rate mode : Constant
Bit rate : 755 Kbps
Channel(s) : 6 channels
Channel positions : Front: L C R, Side: L R, LFE
Sampling rate : 48.0 KHz
Bit depth : 24 bits
Compression mode : Lossy
Stream size : 667 MiB (3%)
Title : MVO DTS 6ch 1510kbps (DVD R7 - С.Р.И.)
Language : Russian
Default : No
Forced : No

Audio #4
ID : 5
Format : DTS
Format/Info : Digital Theater Systems
Mode : 16
Format settings, Endianness : Big
Codec ID : A_DTS
Duration : 2h 3mn
Bit rate mode : Constant
Bit rate : 1 509 Kbps
Channel(s) : 6 channels
Channel positions : Front: L C R, Side: L R, LFE
Sampling rate : 48.0 KHz
Bit depth : 16 bits
Compression mode : Lossy
Stream size : 1.30 GiB (7%)
Title : AVO DTS 6ch 1510kbps (А.Гаврилов)
Language : Russian
Default : No
Forced : No

Audio #5
ID : 6
Format : DTS
Format/Info : Digital Theater Systems
Mode : 16
Format settings, Endianness : Big
Codec ID : A_DTS
Duration : 2h 3mn
Bit rate mode : Constant
Bit rate : 1 509 Kbps
Channel(s) : 6 channels
Channel positions : Front: L C R, Side: L R, LFE
Sampling rate : 48.0 KHz
Bit depth : 16 bits
Compression mode : Lossy
Stream size : 1.30 GiB (7%)
Title : AVO DTS 6ch 1510kbps (Ю.Живов)
Language : Russian
Default : No
Forced : No

Audio #6
ID : 7
Format : DTS
Format/Info : Digital Theater Systems
Mode : 16
Format settings, Endianness : Big
Codec ID : A_DTS
Duration : 2h 3mn
Bit rate mode : Constant
Bit rate : 1 509 Kbps
Channel(s) : 6 channels
Channel positions : Front: L C R, Side: L R, LFE
Sampling rate : 48.0 KHz
Bit depth : 16 bits
Compression mode : Lossy
Stream size : 1.30 GiB (7%)
Title : Original DTS 6ch 1510kbps
Language : English
Default : No
Forced : No

Text #1
ID : 8
Format : UTF-8
Codec ID : S_TEXT/UTF8
Codec ID/Info : UTF-8 Plain Text
Language : Russian
Default : No
Forced : No

Text #2
ID : 9
Format : UTF-8
Codec ID : S_TEXT/UTF8
Codec ID/Info : UTF-8 Plain Text
Language : English
Default : No
Forced : No

Menu
00:00:00.000 : :0:00:00.000
00:08:25.755 : :0:08:25.755
00:15:00.107 : :0:15:00.107
00:18:35.656 : :0:18:35.656
00:23:12.724 : :0:23:12.724
00:31:23.214 : :0:31:23.214
00:38:44.405 : :0:38:44.405
00:45:13.085 : :0:45:13.085
00:54:19.839 : :0:54:19.839
00:58:22.874 : :0:58:22.874
01:10:09.287 : :1:10:09.287
01:15:44.872 : :1:15:44.872
01:24:10.754 : :1:24:10.754
01:33:41.490 : :1:33:41.490
01:41:33.378 : :1:41:33.378
01:49:20.679 : :1:49:20.679

Свернуть
_________________
Изображение
Не в сети
Профиль  
 Добавлено: 2013-01-05 12:28 (спустя 2 часа 17 минут)
Аватара пользователя
Стаж: 4 года 1 месяц
Возраст: 21
Сообщений: 1360
Лайков: 7
смотрел давно, сейчас все фильмы почти об этом
_________________
Если ты это читаешь, значит ты неудачник.
Не в сети
Профиль  
Начать новую темуОтветить на тему  [ Сообщений: 2 ] 
Вы не можете начинать темы
Вы не можете отвечать на сообщения
Вы не можете редактировать свои сообщения
Вы не можете удалять свои сообщения