Правила форума

  • В этом разделе создание новых тем Запрещено.
  • Для создания новых тем пользуйтесь Корневым разделом DVD и HD фильмы.
Начать новую темуОтветить на тему  [ Сообщений: 2 ] 
Торрент файл
Размер: 3.54 GB • Зарегистрирован: 2 года 10 месяцев • Статус: Проверено
Скачан: 22 раза • Желающих скачать: 0 • Поблагодарили: 20 раз
 Раздают: 0  |  0 KB/s  ]   Качают: 0  |  0 KB/s  ] 
 Полного источника не было 6 дней 
Сообщения
 Добавлено: 2014-01-26 09:15
Аватара пользователя
Стаж: 3 года 6 месяцев
Сообщений: 175
Спасибок: 4258
Лайков: 29
Шкала агрессии / The Aggression Scale

Изображение


Год выпуска: 2012
Страна: США
Жанр: боевик, триллер
Продолжительность: 01:25:16
Перевод: Профессиональный (двухголосый) [НТВ+]

Режиссёр: Стивен С. Миллер
В ролях: Бойд Кестнер, Дерек Мирс, Джейкоб Рейнольдс, Джозеф МакКелхир, Дэна Эшбрук, Лиза Ротонди, Райан Хартвиг, Рэй Уайз, Фаббианн Терез, Эбен Костбар
Описание: В один прекрасный день у криминального авторитета некие лица умудрились спереть около 500 тысяч долларов. Озлобленный мафиози не простит такого хамства. Он посылает четырех головорезов в «гости» семьям похитителей, чтобы передать «привет». Все проходит гладко. Однако в одном из домов убийцы встречают молодого паренька Оуэна. Члены мафиозной структуры еще не подозревают, что этот парень хуже любого беса. Оуэн имеет психическое заболевание, которое проявляется склонностью к насилию и изобретению смертельных ловушек. Вот такой себе «один дома» в более жесткой обработке…
Изображение
Изображение

Качество: BDRip 720p
Формат: MKV
Видео кодек: AVC
Аудио кодек: AC3 (Dolby Digital)
Видео: 4996 kb/s, 1280x530, 23,976 кадра/сек
Аудио #1: Russian: AC3, 192 kb/s (2 ch), 48,0 КГц
Аудио #2: English: AC3, 640 kb/s (6 ch), 48,0 КГц
Изображение
Скриншоты
Изображение
Изображение
Изображение
Свернуть

MI
General
Unique ID : 229617641842518433557592888044300785543 (0xACBEBFCCC7141DB6B3F0AA34CF53D787)
Complete name : F:\ФИЛЬМЫ\The.Aggression.Scale.2012.Blu.Ray.720p.CINEMANIA.mkv
Format : Matroska
Format version : Version 4 / Version 2
File size : 3.54 GiB
Duration : 1h 25mn
Overall bit rate : 5 947 Kbps
Movie name : Release Group CINEMANIA
Encoded date : UTC 2014-01-25 16:58:11
Writing application : mkvmerge v6.7.0 ('Back to the Ground') 64bit built on Jan 8 2014 15:10:52
Writing library : libebml v1.3.0 + libmatroska v1.4.1

Video
ID : 1
Format : AVC
Format/Info : Advanced Video Codec
Format profile : High@L4.1
Format settings, CABAC : Yes
Format settings, ReFrames : 11 frames
Codec ID : V_MPEG4/ISO/AVC
Duration : 1h 25mn
Bit rate : 4 996 Kbps
Width : 1 280 pixels
Height : 530 pixels
Display aspect ratio : 2.40:1
Frame rate mode : Constant
Frame rate : 23.976 fps
Color space : YUV
Chroma subsampling : 4:2:0
Bit depth : 8 bits
Scan type : Progressive
Bits/(Pixel*Frame) : 0.307
Stream size : 2.98 GiB (84%)
Title : Release Group CINEMANIA
Writing library : x264 core 125 r2200 999b753
Encoding settings : cabac=1 / ref=11 / deblock=1:-3:-3 / analyse=0x3:0x113 / me=tesa / subme=11 / psy=1 / psy_rd=1.10:0.00 / mixed_ref=1 / me_range=16 / chroma_me=1 / trellis=2 / 8x8dct=1 / cqm=0 / deadzone=21,11 / fast_pskip=0 / chroma_qp_offset=-2 / threads=12 / lookahead_threads=2 / sliced_threads=0 / nr=0 / decimate=0 / interlaced=0 / bluray_compat=0 / constrained_intra=0 / bframes=9 / b_pyramid=2 / b_adapt=2 / b_bias=0 / direct=3 / weightb=1 / open_gop=0 / weightp=2 / keyint=250 / keyint_min=23 / scenecut=40 / intra_refresh=0 / rc=crf / mbtree=0 / crf=15.0 / qcomp=0.60 / qpmin=0 / qpmax=69 / qpstep=4 / ip_ratio=1.40 / pb_ratio=1.30 / aq=1:0.70
Language : English
Default : Yes
Forced : No

Audio #1
ID : 2
Format : AC-3
Format/Info : Audio Coding 3
Mode extension : CM (complete main)
Format settings, Endianness : Big
Codec ID : A_AC3
Duration : 1h 25mn
Bit rate mode : Constant
Bit rate : 192 Kbps
Channel(s) : 2 channels
Channel positions : Front: L R
Sampling rate : 48.0 KHz
Bit depth : 16 bits
Compression mode : Lossy
Stream size : 117 MiB (3%)
Title : Нтв+
Language : Russian
Default : Yes
Forced : Yes

Audio #2
ID : 3
Format : AC-3
Format/Info : Audio Coding 3
Mode extension : CM (complete main)
Format settings, Endianness : Big
Codec ID : A_AC3
Duration : 1h 25mn
Bit rate mode : Constant
Bit rate : 640 Kbps
Channel(s) : 6 channels
Channel positions : Front: L C R, Side: L R, LFE
Sampling rate : 48.0 KHz
Bit depth : 16 bits
Compression mode : Lossy
Stream size : 390 MiB (11%)
Language : English
Default : No
Forced : No

Menu
00:00:00.000 : en:00:00:00.000
00:03:46.976 : en:00:03:46.976
00:09:22.395 : en:00:09:22.395
00:22:16.376 : en:00:22:16.376
00:32:29.280 : en:00:32:29.280
00:41:29.862 : en:00:41:29.862
00:51:28.794 : en:00:51:28.794
00:58:44.062 : en:00:58:44.062
01:03:16.125 : en:01:03:16.125
01:10:48.869 : en:01:10:48.869
01:14:27.546 : en:01:14:27.546
01:22:08.965 : en:01:22:08.965
Свернуть


Последний раз редактировалось bel66 2014-01-26 13:07, всего редактировалось 1 раз.
Не в сети
Профиль  
 Добавлено: 2014-01-26 12:55 (спустя 3 часа)
Аватара пользователя
Стаж: 7 лет 8 месяцев
Сообщений: 40
Лайков: 5
Рецензия на фильму полный отпад спасибу ткнул качаю будем посмотреть "Вот такой себе «один дома» в более жесткой обработке…"
Не в сети
Профиль  
Начать новую темуОтветить на тему  [ Сообщений: 2 ] 
Вы не можете начинать темы
Вы не можете отвечать на сообщения
Вы не можете редактировать свои сообщения
Вы не можете удалять свои сообщения