Правила форума

  • В этом разделе создание новых тем Запрещено.
  • Для создания новых тем пользуйтесь Корневым разделом DVD и HD фильмы.
Начать новую темуОтветить на тему  [ Сообщений: 5 ] 
Торрент файл
Размер: 5.88 GB • Зарегистрирован: 3 года 10 месяцев • Статус: Проверено
Скачан: 43 раза • Желающих скачать: 0 • Поблагодарили: 17 раз
 Раздают: 0  |  0 KB/s  ]   Качают: 0  |  0 KB/s  ] 
 Полного источника не было 2 года 3 месяца 
Сообщения
 Добавлено: 2013-01-17 01:11
Модератор
Аватара пользователя
Стаж: 6 лет 10 месяцев
Возраст: 33
Сообщений: 5908
Спасибок: 61263
Лайков: 3540
Изображение

Шкатулка проклятия
The Possession


Год выпуска: 2012
Страна: США, Канада
Слоган: «Бойся демона, что не боится Бога»
Жанр: ужасы, триллер
Продолжительность: 01:32:13
Перевод: Профессиональный (полное дублирование)
Режиссер: Уле Борнедаль
Сценарий: Джульетт Сноуден, Стайлз Уайт, Лесли Горнштейн
Продюсер: Роберт Дж. Тейперт, Д. Янг, Сэм Рэйми, Николь Браун, Питер Шлессел
Оператор: Дан Лаустсен
Композитор: Антон Санко
В ролях: Джеффри Дин Морган, Михаил Георгиу, Наташа Калис, Кира Седжвик, Мэдисон Девенпорт, Роб ЛаБелль, Матисьяху, Джей Бразо, Никита Прозоровский, Грант Шоу, Нана Гбивонио, Анна Хэган
Бюджет: $14 000 000
Сборы в США: $49 130 154
Сборы в России: $3 071 055
Сборы в мире: $76 691 449
Мировая премьера: 30 августа 2012
Релиз на DVD: 15 января 2013, «West Video»
Релиз на Blu-ray: 15 января 2013, «West Video»
Описание: Девочка покупает винтажную шкатулку на ярмарке в одном из соседних дворов. Поначалу родители не видят повода для беспокойства, когда их младшая дочь становится одержима новой игрушкой. Со временем поведение девочки становится все более странным, а реакции неожиданными, родители пытаются раскрыть секрет шкатулки. Они не подозревают, что в деревянной коробке живет злой дух, который творит страшные вещи со своими хозяевами - их было много и владели они этим «сокровищем» очень недолго. Отец девочки объединяется с бывшей женой в попытках найти способ снять проклятие с их ребенка.

Изображение User Rating: 5.820 (2406)
Изображение User Rating: 5.90 (8 799)
MPAA: PG-13 - Детям до 13 лет просмотр не желателен
Релиз группы: Изображение
Раздача группы: Изображение
Изображение
Качество: BDRip 720p
Формат: MKV
Видео: MPEG-4 AVC, 6552 Кбит/с, 1280x532, 23.976 fps
Аудио: 48 kHz, Russian: DTS, 755 kb/s (6 ch) / English: DTS, 1510 kb/s (6 ch) / AC3, 128 kb/s (2 ch) [Commentary]
"MediaInfo"
    General
    Unique ID : 185751615517894434595746109841731072746 (0x8BBE75B904F6663EAB962772AE79B2EA)
    Complete name : Shkatulka.prokljatija.2012.D.BDRip.720p.IRONCLUB.mkv
    Format : Matroska
    Format version : Version 2
    File size : 5.88 GiB
    Duration : 1h 32mn
    Overall bit rate : 9 126 Kbps
    Movie name : IRONCLUB
    Encoded date : UTC 2013-01-16 20:40:59
    Writing application : mkvmerge v5.2.0 ('I can't explain') built on Dec 18 2011 18:12:03
    Writing library : libebml v1.2.3 + libmatroska v1.3.0

    Video
    ID : 1
    Format : AVC
    Format/Info : Advanced Video Codec
    Format profile : High@L4.1
    Format settings, CABAC : Yes
    Format settings, ReFrames : 12 frames
    Codec ID : V_MPEG4/ISO/AVC
    Duration : 1h 32mn
    Bit rate : 6 552 Kbps
    Width : 1 280 pixels
    Height : 534 pixels
    Display aspect ratio : 2.40:1
    Frame rate : 23.976 fps
    Color space : YUV
    Chroma subsampling : 4:2:0
    Bit depth : 8 bits
    Scan type : Progressive
    Bits/(Pixel*Frame) : 0.400
    Stream size : 4.22 GiB (72%)
    Title : The Possession 2012 720p BluRay DTS x264-EbP
    Writing library : x264 core 128 r2216 198a7ea
    Encoding settings : cabac=1 / ref=12 / deblock=1:-3:-3 / analyse=0x3:0x113 / me=tesa / subme=9 / psy=1 / psy_rd=1.05:0.00 / mixed_ref=1 / me_range=16 / chroma_me=1 / trellis=2 / 8x8dct=1 / cqm=0 / deadzone=21,11 / fast_pskip=0 / chroma_qp_offset=-2 / threads=12 / lookahead_threads=2 / sliced_threads=0 / nr=0 / decimate=0 / interlaced=0 / bluray_compat=0 / constrained_intra=0 / bframes=8 / b_pyramid=2 / b_adapt=2 / b_bias=0 / direct=3 / weightb=1 / open_gop=0 / weightp=2 / keyint=250 / keyint_min=23 / scenecut=40 / intra_refresh=0 / rc=crf / mbtree=0 / crf=16.3 / qcomp=0.55 / qpmin=0 / qpmax=69 / qpstep=4 / ip_ratio=1.40 / pb_ratio=1.30 / aq=1:0.55
    Language : English
    Default : Yes
    Forced : Yes
    Matrix coefficients : BT.709-5, BT.1361, IEC 61966-2-4 709, SMPTE RP177

    Audio #1
    ID : 2
    Format : DTS
    Format/Info : Digital Theater Systems
    Codec ID : A_DTS
    Duration : 1h 32mn
    Bit rate mode : Constant
    Bit rate : 755 Kbps
    Channel(s) : 6 channels
    Channel positions : Front: L C R, Side: L R, LFE
    Sampling rate : 48.0 KHz
    Bit depth : 24 bits
    Compression mode : Lossy
    Stream size : 498 MiB (8%)
    Title : DTS 5.1 @ 768 kbps - Dub, R5
    Language : Russian
    Default : Yes
    Forced : Yes

    Audio #2
    ID : 3
    Format : DTS
    Format/Info : Digital Theater Systems
    Codec ID : A_DTS
    Duration : 1h 32mn
    Bit rate mode : Constant
    Bit rate : 1 510 Kbps
    Channel(s) : 6 channels
    Channel positions : Front: L C R, Side: L R, LFE
    Sampling rate : 48.0 KHz
    Bit depth : 24 bits
    Compression mode : Lossy
    Stream size : 996 MiB (17%)
    Title : DTS 5.1 @ 1536 kbps
    Language : English
    Default : No
    Forced : No

    Audio #3
    ID : 4
    Format : AC-3
    Format/Info : Audio Coding 3
    Mode extension : CM (complete main)
    Format settings, Endianness : Big
    Codec ID : A_AC3
    Duration : 1h 32mn
    Bit rate mode : Constant
    Bit rate : 128 Kbps
    Channel(s) : 2 channels
    Channel positions : Front: L R
    Sampling rate : 48.0 KHz
    Bit depth : 16 bits
    Compression mode : Lossy
    Stream size : 84.4 MiB (1%)
    Title : Commentary
    Language : English
    Default : No
    Forced : No

    Text #1
    ID : 5
    Format : UTF-8
    Codec ID : S_TEXT/UTF8
    Codec ID/Info : UTF-8 Plain Text
    Language : Russian
    Default : No
    Forced : No

    Text #2
    ID : 6
    Format : UTF-8
    Codec ID : S_TEXT/UTF8
    Codec ID/Info : UTF-8 Plain Text
    Language : English
    Default : No
    Forced : No

    Text #3
    ID : 7
    Format : UTF-8
    Codec ID : S_TEXT/UTF8
    Codec ID/Info : UTF-8 Plain Text
    Title : SDH
    Language : English
    Default : No
    Forced : No

    Text #4
    ID : 8
    Format : UTF-8
    Codec ID : S_TEXT/UTF8
    Codec ID/Info : UTF-8 Plain Text
    Language : Spanish
    Default : No
    Forced : No

    Menu
    00:00:00.000 : en:00:00:00.000
    00:03:36.508 : en:00:03:36.508
    00:08:00.313 : en:00:08:00.313
    00:11:01.744 : en:00:11:01.744
    00:13:24.721 : en:00:13:24.721
    00:16:57.016 : en:00:16:57.016
    00:20:51.250 : en:00:20:51.250
    00:25:05.129 : en:00:25:05.129
    00:30:09.975 : en:00:30:09.975
    00:35:03.560 : en:00:35:03.560
    00:39:06.177 : en:00:39:06.177
    00:43:04.540 : en:00:43:04.540
    00:46:16.816 : en:00:46:16.816
    00:50:02.458 : en:00:50:02.458
    00:52:48.707 : en:00:52:48.707
    00:55:26.573 : en:00:55:26.573
    00:57:09.926 : en:00:57:09.926
    01:01:59.341 : en:01:01:59.341
    01:05:47.569 : en:01:05:47.569
    01:08:22.098 : en:01:08:22.098
    01:12:05.404 : en:01:12:05.404
    01:17:08.749 : en:01:17:08.749
    01:24:01.912 : en:01:24:01.912
    01:26:42.239 : en:01:26:42.239
Свернуть
"Знаете ли Вы, что..."
  • Первоначально Американская Киноассоциация присудила рейтинг R за «насилие, ужас и чрезмерно волнующие образы». Фильм был отредактирован и в итоге получил рейтинг PG-13 за «материал взрослой тематики с применением насилия и волнующих сцен».
Свернуть
Скриншоты

Изображение
Изображение
Изображение
Свернуть
_________________
ИзображениеИзображение Изображение
Изображение


Последний раз редактировалось rotametr 2013-01-17 15:50, всего редактировалось 1 раз.
 tany1984 и di-ys1 нравится это.
Не в сети
Профиль  
 Добавлено: 2013-01-17 04:59 (спустя 3 часа)
Аватара пользователя
Стаж: 7 лет 2 месяца
Сообщений: 7167
Спасибок: 82015
Лайков: 2438
Прилепляюсь, мож чем помогу :-D


:co_ol:
Не в сети
Профиль  
 Добавлено: 2013-01-17 07:01 (спустя 2 часа 2 минуты)
Модератор
Аватара пользователя
Стаж: 6 лет 10 месяцев
Возраст: 33
Сообщений: 5908
Спасибок: 61263
Лайков: 3540

di-ys1:

Прилепляюсь, мож чем помогу :-D


:co_ol:
Поможешь, сид+ не получился в раздаче.
_________________
ИзображениеИзображение Изображение
Изображение
Не в сети
Профиль  
 Добавлено: 2013-01-17 18:41 (спустя 11 часов)
Аватара пользователя
Стаж: 8 лет
Сообщений: 1391
Спасибок: 39
Лайков: 64
rotametr
di-ys1
Гига на 2-3 когда будет, парни :ne_znayu:
Не в сети
Профиль  
 Добавлено: 2013-01-17 19:24 (спустя 42 минуты)
Аватара пользователя
Стаж: 7 лет 2 месяца
Сообщений: 7167
Спасибок: 82015
Лайков: 2438
ferguson Чуть позже.


Нормальный триллер, мне понравился. Еслибы в начале не сказали, что на реальных событиях снято, блин не поверил-бы.
Не в сети
Профиль  
Начать новую темуОтветить на тему  [ Сообщений: 5 ] 
Вы не можете начинать темы
Вы не можете отвечать на сообщения
Вы не можете редактировать свои сообщения
Вы не можете удалять свои сообщения