Правила форума

  • В этом разделе создание новых тем Запрещено.
  • Для создания новых тем пользуйтесь Корневым разделом DVD и HD фильмы.
Начать новую темуОтветить на тему  [ Сообщений: 4 ] 
Торрент файл
Размер: 24.19 GB • Зарегистрирован: 3 года 10 месяцев • Статус: Проверено
Скачан: 46 раз • Желающих скачать: 0 • Поблагодарили: 16 раз
 Раздают: 0  |  0 KB/s  ]   Качают: 0  |  0 KB/s  ] 
 Полного источника не было 3 года 2 месяца 
Сообщения
 Добавлено: 2013-01-17 11:50
Модератор
Аватара пользователя
Стаж: 6 лет 10 месяцев
Возраст: 33
Сообщений: 5908
Спасибок: 61266
Лайков: 3540
Изображение

Шкатулка проклятия
The Possession


Год выпуска: 2012
Страна: США, Канада
Слоган: «Бойся демона, что не боится Бога»
Жанр: ужасы, триллер
Продолжительность: 01:32:13
Перевод: Профессиональный (полное дублирование)
Субтитры: Russian, English [Full, SDH], Spanish
Режиссер: Уле Борнедаль
Сценарий: Джульетт Сноуден, Стайлз Уайт, Лесли Горнштейн
Продюсер: Роберт Дж. Тейперт, Д. Янг, Сэм Рэйми, Николь Браун, Питер Шлессел
Оператор: Дан Лаустсен
Композитор: Антон Санко
В ролях: Джеффри Дин Морган, Наташа Калис, Кира Седжвик, Мэдисон Девенпорт, Роб ЛаБелль, Матисьяху, Джей Бразо, Грант Шоу, Нана Гбивонио, Анна Хэган
Бюджет: $14 000 000
Сборы в США: $49 130 154
Сборы в России: $3 071 055
Сборы в мире: $76 691 449
Мировая премьера: 30 августа 2012
Релиз на DVD: 15 января 2013, «West Video»
Релиз на Blu-ray: 15 января 2013, «West Video»
Описание: Девочка покупает винтажную шкатулку на ярмарке в одном из соседних дворов. Поначалу родители не видят повода для беспокойства, когда их младшая дочь становится одержима новой игрушкой. Со временем поведение девочки становится все более странным, а реакции неожиданными, родители пытаются раскрыть секрет шкатулки. Они не подозревают, что в деревянной коробке живет злой дух, который творит страшные вещи со своими хозяевами - их было много и владели они этим «сокровищем» очень недолго. Отец девочки объединяется с бывшей женой в попытках найти способ снять проклятие с их ребенка.

Изображение User Rating: 5.820 (2406)
Изображение User Rating: 5.90 (8 799)
MPAA: PG-13 - Детям до 13 лет просмотр не желателен
Раздача группы: Изображение
"NFO"
Format : Matroska
Format version : Version 4 / Version 2
File size : 24.2 GiB
Duration : 1h 32mn
Overall bit rate mode : Variable
Overall bit rate : 37.5 Mbps
Movie name : GORENOISE
Encoded date : UTC 2010-02-22 21:41:31
Writing application : mkvmerge v5.9.0 ('On The Loose') built on Dec 9 2012 15:37:01
Writing library : libebml v1.3.0 + libmatroska v1.4.0
Video #1
ID : 1
Format : AVC
Format/Info : Advanced Video Codec
Format profile : High@L4.1
Format settings, CABAC : Yes
Format settings, ReFrames : 2 frames
Codec ID : V_MPEG4/ISO/AVC
Duration : 1h 32mn
Bit rate mode : Variable
Bit rate : 34.0 Mbps
Width : 1 920 pixels
Height : 1 080 pixels
Display aspect ratio : 16:9
Frame rate mode : Constant
Frame rate : 23.976 fps
Color space : YUV
Chroma subsampling : 4:2:0
Bit depth : 8 bits
Scan type : Progressive
Bits/(Pixel*Frame) : 0.683
Stream size : 21.9 GiB (90%)
Title : GORENOISE
Language : English
Default : Yes
Forced : No
Audio #2
ID : 2
Format : DTS
Format/Info : Digital Theater Systems
Codec ID : A_DTS
Duration : 1h 32mn
Bit rate mode : Constant
Bit rate : 755 Kbps
Channel(s) : 6 channels
Channel positions : Front: L C R, Side: L R, LFE
Sampling rate : 48.0 KHz
Bit depth : 24 bits
Compression mode : Lossy
Stream size : 498 MiB (2%)
Title : Профессиональный (дублированный) R5
Language : Russian
Default : Yes
Forced : No
Audio #3
ID : 3
Format : DTS
Format/Info : Digital Theater Systems
Format profile : MA / Core
Codec ID : A_DTS
Duration : 1h 32mn
Bit rate mode : Variable
Bit rate : 1 561 Kbps / 1 510 Kbps
Channel(s) : 6 channels
Channel positions : Front: L C R, Side: L R, LFE
Sampling rate : 48.0 KHz
Bit depth : 24 bits
Compression mode : Lossless / Lossy
Title : Оригинал
Language : English
Default : No
Forced : No
Audio #4
ID : 4
Format : AC-3
Format/Info : Audio Coding 3
Mode extension : CM (complete main)
Format settings, Endianness : Big
Codec ID : A_AC3
Duration : 1h 32mn
Bit rate mode : Constant
Bit rate : 256 Kbps
Channel(s) : 2 channels
Channel positions : Front: L R
Sampling rate : 48.0 KHz
Bit depth : 16 bits
Compression mode : Lossy
Stream size : 169 MiB (1%)
Title : Комментарии
Language : English
Default : No
Forced : No
Audio #5
ID : 5
Format : AC-3
Format/Info : Audio Coding 3
Mode extension : CM (complete main)
Format settings, Endianness : Big
Codec ID : A_AC3
Duration : 1h 32mn
Bit rate mode : Constant
Bit rate : 256 Kbps
Channel(s) : 2 channels
Channel positions : Front: L R
Sampling rate : 48.0 KHz
Bit depth : 16 bits
Compression mode : Lossy
Stream size : 169 MiB (1%)
Title : Комментарии
Language : English
Default : No
Forced : No
Text #6
ID : 6
Format : UTF-8
Codec ID : S_TEXT/UTF8
Codec ID/Info : UTF-8 Plain Text
Title : Полные
Language : Russian
Default : No
Forced : No
Text #7
ID : 7
Format : UTF-8
Codec ID : S_TEXT/UTF8
Codec ID/Info : UTF-8 Plain Text
Title : Полные
Language : English
Default : No
Forced : No
Text #8
ID : 8
Format : UTF-8
Codec ID : S_TEXT/UTF8
Codec ID/Info : UTF-8 Plain Text
Title : SDH
Language : English
Default : No
Forced : No
Menu
00:00:00.000 : en:00:00:00.000
00:03:36.508 : en:00:03:36.508
00:08:00.313 : en:00:08:00.313
00:11:01.744 : en:00:11:01.744
00:13:24.721 : en:00:13:24.721
00:16:57.016 : en:00:16:57.016
00:20:51.250 : en:00:20:51.250
00:25:05.129 : en:00:25:05.129
00:30:09.975 : en:00:30:09.975
00:35:03.560 : en:00:35:03.560
00:39:06.177 : en:00:39:06.177
00:43:04.540 : en:00:43:04.540
00:46:16.816 : en:00:46:16.816
00:50:02.458 : en:00:50:02.458
00:52:48.707 : en:00:52:48.707
00:55:26.573 : en:00:55:26.573
00:57:09.926 : en:00:57:09.926
01:01:59.341 : en:01:01:59.341
01:05:47.569 : en:01:05:47.569
01:08:22.098 : en:01:08:22.098
01:12:05.404 : en:01:12:05.404
01:17:08.749 : en:01:17:08.749
01:24:01.912 : en:01:24:01.912
01:26:42.239 : en:01:26:42.239
Свернуть

Качество: Blu-Ray Remux (1080p)[CHD]
Формат: MKV
Видео: MPEG-4 AVC, 34.0 Мбит/с, 1920x1080, 23.976 fps
Аудио: Русский (DTS, 6 ch, 768 Кбит/с), английский (DTS-HD MA, 6 ch, 3455 Кбит/с), (AC3, 2 ch, 256 Кбит/с)
"Знаете ли Вы, что..."
  • Первоначально Американская Киноассоциация присудила рейтинг R за «насилие, ужас и чрезмерно волнующие образы». Фильм был отредактирован и в итоге получил рейтинг PG-13 за «материал взрослой тематики с применением насилия и волнующих сцен».
Свернуть
Скриншоты

Изображение
Изображение
Изображение
Свернуть
_________________
ИзображениеИзображение Изображение
Изображение


Последний раз редактировалось rotametr 2013-01-17 15:50, всего редактировалось 1 раз.
 tany1984 и di-ys1 нравится это.
Не в сети
Профиль  
 Добавлено: 2013-01-17 12:14 (спустя 24 минуты)
Модератор
Аватара пользователя
Стаж: 6 лет 10 месяцев
Возраст: 33
Сообщений: 5908
Спасибок: 61266
Лайков: 3540
На раздаче давно, но пишет что нет источника :du_ma_et:
_________________
ИзображениеИзображение Изображение
Изображение
Не в сети
Профиль  
 Добавлено: 2013-01-20 10:02 (спустя 2 дня 21 час)
Top-seeder
Стаж: 8 лет
Сообщений: 802
Достойный фильм жанра. Спасибо :)
Не в сети
Профиль  
 Добавлено: 2013-01-21 08:40 (спустя 22 часа)
Модератор
Аватара пользователя
Стаж: 6 лет 10 месяцев
Возраст: 33
Сообщений: 5908
Спасибок: 61266
Лайков: 3540

Алекс250478:

Достойный фильм жанра. Спасибо :)
:-ok-:
_________________
ИзображениеИзображение Изображение
Изображение
Не в сети
Профиль  
Начать новую темуОтветить на тему  [ Сообщений: 4 ] 
Вы не можете начинать темы
Вы не можете отвечать на сообщения
Вы не можете редактировать свои сообщения
Вы не можете удалять свои сообщения