Правила форума

  • В этом разделе создание новых тем Запрещено.
  • Для создания новых тем пользуйтесь Корневым разделом DVD и HD фильмы.
Начать новую темуОтветить на тему  [ 1 сообщение ] 
Торрент файл
Размер: 9.77 GB • Зарегистрирован: 2 года 5 месяцев • Статус: Проверено
Скачан: 14 раз • Желающих скачать: 0 • Поблагодарили: 3 раза
 Раздают: 0  |  0 KB/s  ]   Качают: 0  |  0 KB/s  ] 
 Полного источника не было 6 месяцев 
Сообщения
 Добавлено: 2014-06-28 20:50
Аватара пользователя
Стаж: 8 лет 9 месяцев
Сообщений: 59
Спасибок: 336
Школа рока / The School of Rock

Изображение


Год выпуска: 2003
Страна: США, Германия
Слоган: «Нам не нужно образование»
Жанр: комедия, музыка
Продолжительность: 108
Перевод 1: Профессиональный (многоголосый закадровый)
Перевод 2: Профессиональный (дублированный)
Перевод 3: Профессиональный (двухголосый закадровый) [Tycoon-studio]
Перевод 4: Одноголосый закадровый [Е. Рудой]
Субтитры: Русские, Английские

Режиссёр: Ричард Линклейтер
Сценарист: Майк Уайт
Продюсер: Скотт Рудин, Скотт Аверсано, Стив Николаидес
Оператор: Рогир Стофферс
Композитор: Крэйг Уэдрен
В ролях: Джек Блэк, Джоан Кьюсак, Майк Уайт, Сара Силверман, Адам Паскаль, Лукас Папаэлиас, Крис Стэк, Лукас Бабин, Джордан-Клэр Грин, Вероника Аффлербах
Описание: После нескольких лет подъема блестящая карьера рок-звезды Дьюи Финна заканчивается полным провалом. Все, что его теперь ждет, это неоплаченные долги и тяжелая депрессия. Но, перехватив не предназначавшийся ему телефонный звонок и придя в изумление от зарплаты (650 долларов в неделю), Дьюи устраивается работать в частную школу.

Его отношение к музыке и детям творит там чудеса, и вскоре появляется возможность начать звездную карьеру заново. Нужно только выиграть конкурс лучших рок-групп — и все проблемы легко разрешатся. Дьюи полон оптимизма, ведь вместе с ним его новый друг — девятилетний Зак, виртуозно играющий на гитаре!
Рейтинг MPAA: Рейтинг PG-13 (Дети до 13 лет допускаются на фильм только с родителями)
Бюджет: $35 000 000
Кассовые сборы: $131 095 614
Изображение
Качество: BDRip 720p
Формат: MKV
Видео кодек: H.264
Аудио кодек: AC3 (Dolby Digital)
Видео: 1280x720 (16:9), ~9853 kbps, 23.976 fps
Аудио 1: (русский), AC-3, 5.1 ch, 48.0 kHz, 640 kbps | многоголосый закадровый
Аудио 2: (русский), AC-3, 2 ch, 48.0 kHz, 192 kbps | дублированный
Аудио 3: (русский), AC-3, 5.1 ch, 48.0 kHz, 640 kbps | двухголосый закадровый
Аудио 4: (русский), AC-3, 5.1 ch, 48.0 kHz, 640 kbps | одноголосый закадровый
Аудио 5: (английский), AC-3, 5.1 ch, 48.0 kHz, 640 kbps | оригинал
Аудио 6: (английский), AC-3, 2 ch, 48.0 kHz, 192 kbps | комментарии режиссёра
Аудио 7: (английский), AC-3, 2 ch, 48.0 kHz, 192 kbps | комментарии актёров

Скриншоты
Изображение
Изображение
Изображение
Свернуть


"MI"
General
Unique ID : 279496560292818986575974282718164359314 (0xD2451458F0A63DCC06774599DED91892)
Complete name : F:\Кино\Школа рока.2003.BDRip.720p.4xRus.Eng.Sub.mkv
Format : Matroska
Format version : Version 2
File size : 9.77 GiB
Duration : 1h 49mn
Overall bit rate : 12.8 Mbps
Encoded date : UTC 2012-06-29 20:36:17
Writing application : mkvmerge v5.6.0 ('Kenya Kane') built on May 31 2012 22:06:17
Writing library : libebml v1.2.2 + libmatroska v1.3.0
Attachment : Yes

Video
ID : 1
Format : AVC
Format/Info : Advanced Video Codec
Format profile : High@L4.1
Format settings, CABAC : Yes
Format settings, ReFrames : 9 frames
Codec ID : V_MPEG4/ISO/AVC
Duration : 1h 49mn
Nominal bit rate : 9 853 Kbps
Width : 1 280 pixels
Height : 720 pixels
Display aspect ratio : 16:9
Frame rate mode : Constant
Frame rate : 23.976 fps
Color space : YUV
Chroma subsampling : 4:2:0
Bit depth : 8 bits
Scan type : Progressive
Bits/(Pixel*Frame) : 0.446
Writing library : x264 core 122
Encoding settings : cabac=1 / ref=9 / deblock=1:-3:-3 / analyse=0x3:0x133 / me=umh / subme=11 / psy=1 / psy_rd=1.00:0.00 / mixed_ref=1 / me_range=32 / chroma_me=1 / trellis=2 / 8x8dct=1 / cqm=0 / deadzone=21,11 / fast_pskip=0 / chroma_qp_offset=-4 / threads=6 / sliced_threads=0 / nr=0 / decimate=1 / interlaced=0 / bluray_compat=0 / constrained_intra=0 / bframes=11 / b_pyramid=2 / b_adapt=2 / b_bias=0 / direct=3 / weightb=1 / open_gop=0 / weightp=2 / keyint=250 / keyint_min=23 / scenecut=40 / intra_refresh=0 / rc_lookahead=60 / rc=2pass / mbtree=1 / bitrate=9853 / ratetol=1.0 / qcomp=0.70 / qpmin=0 / qpmax=69 / qpstep=4 / cplxblur=20.0 / qblur=0.5 / ip_ratio=1.40 / aq=1:1.00
Default : Yes
Forced : No

Audio #1
ID : 2
Format : AC-3
Format/Info : Audio Coding 3
Mode extension : CM (complete main)
Format settings, Endianness : Big
Codec ID : A_AC3
Duration : 1h 49mn
Bit rate mode : Constant
Bit rate : 640 Kbps
Channel count : 6 channels
Channel positions : Front: L C R, Side: L R, LFE
Sampling rate : 48.0 KHz
Bit depth : 16 bits
Compression mode : Lossy
Delay relative to video : 19ms
Stream size : 500 MiB (5%)
Title : MVO
Language : Russian
Default : Yes
Forced : No

Audio #2
ID : 3
Format : AC-3
Format/Info : Audio Coding 3
Mode extension : CM (complete main)
Format settings, Endianness : Big
Codec ID : A_AC3
Duration : 1h 49mn
Bit rate mode : Constant
Bit rate : 192 Kbps
Channel count : 2 channels
Channel positions : Front: L R
Sampling rate : 48.0 KHz
Bit depth : 16 bits
Compression mode : Lossy
Stream size : 150 MiB (1%)
Title : Dub
Language : Russian
Default : No
Forced : No

Audio #3
ID : 4
Format : AC-3
Format/Info : Audio Coding 3
Mode extension : CM (complete main)
Format settings, Endianness : Big
Codec ID : A_AC3
Duration : 1h 49mn
Bit rate mode : Constant
Bit rate : 640 Kbps
Channel count : 6 channels
Channel positions : Front: L C R, Side: L R, LFE
Sampling rate : 48.0 KHz
Bit depth : 16 bits
Compression mode : Lossy
Delay relative to video : 19ms
Stream size : 500 MiB (5%)
Title : DVO
Language : Russian
Default : No
Forced : No

Audio #4
ID : 5
Format : AC-3
Format/Info : Audio Coding 3
Codec ID : A_AC3
Duration : 1h 49mn
Channel count : 6 channels
Sampling rate : 48.0 KHz
Compression mode : Lossy
Title : VO
Language : Russian
Default : No
Forced : No

Audio #5
ID : 6
Format : AC-3
Format/Info : Audio Coding 3
Mode extension : CM (complete main)
Format settings, Endianness : Big
Codec ID : A_AC3
Duration : 1h 49mn
Bit rate mode : Constant
Bit rate : 448 Kbps
Channel count : 6 channels
Channel positions : Front: L C R, Side: L R, LFE
Sampling rate : 48.0 KHz
Bit depth : 16 bits
Compression mode : Lossy
Delay relative to video : 19ms
Stream size : 350 MiB (3%)
Title : Original
Language : English
Default : No
Forced : No

Audio #6
ID : 7
Format : AC-3
Format/Info : Audio Coding 3
Mode extension : CM (complete main)
Format settings, Endianness : Big
Codec ID : A_AC3
Duration : 1h 49mn
Bit rate mode : Constant
Bit rate : 192 Kbps
Channel count : 2 channels
Channel positions : Front: L R
Sampling rate : 48.0 KHz
Bit depth : 16 bits
Compression mode : Lossy
Stream size : 150 MiB (1%)
Title : Director's commentaries
Language : English
Default : No
Forced : No

Audio #7
ID : 8
Format : AC-3
Format/Info : Audio Coding 3
Mode extension : CM (complete main)
Format settings, Endianness : Big
Codec ID : A_AC3
Duration : 1h 49mn
Bit rate mode : Constant
Bit rate : 192 Kbps
Channel count : 2 channels
Channel positions : Front: L R
Sampling rate : 48.0 KHz
Bit depth : 16 bits
Compression mode : Lossy
Stream size : 150 MiB (1%)
Title : Actors' commentaries
Language : English
Default : No
Forced : No

Text #1
ID : 9
Format : UTF-8
Codec ID : S_TEXT/UTF8
Codec ID/Info : UTF-8 Plain Text
Language : Russian
Default : No
Forced : No

Text #2
ID : 10
Format : UTF-8
Codec ID : S_TEXT/UTF8
Codec ID/Info : UTF-8 Plain Text
Language : English
Default : No
Forced : No
Свернуть


Тема поднималась пользователем uzu 2014-06-28 20:50.
Не в сети
Профиль  
Начать новую темуОтветить на тему  [ 1 сообщение ] 
Вы не можете начинать темы
Вы не можете отвечать на сообщения
Вы не можете редактировать свои сообщения
Вы не можете удалять свои сообщения