Правила форума

  • В этом разделе создание новых тем Запрещено.
  • Для создания новых тем пользуйтесь Корневым разделом DVD и HD фильмы.
Начать новую темуОтветить на тему  [ Сообщений: 2 ] 
Торрент файл
Размер: 12.29 GB • Зарегистрирован: 5 лет 4 месяца • Статус: Проверено
Скачан: 10 раз • Желающих скачать: 0 • Поблагодарили: 2 раза
 Раздают: 0  |  0 KB/s  ]   Качают: 0  |  0 KB/s  ] 
 Полного источника не было 6 месяцев 
Сообщения
 Добавлено: 2011-07-24 17:28
Инквизитор
Аватара пользователя
Стаж: 8 лет 8 месяцев
Сообщений: 3753
Спасибок: 28360
Лайков: 9
Изображение

Школьные узы / School Ties

«Just Because You're Accepted Doesn't Mean You Belong.»


Год выпуска: 1992
Страна: США
Жанр: драма, спорт
Продолжительность: 01:47:24
Перевод: Профессиональный (многоголосый, закадровый)
Режиссер: Роберт Мэндел
Сценарий: Дик Вульф, Дэррил Пониксен
Продюсер: Стэнли Р. Джаффе, Шерри Лэнсинг, Дэнтон Рисснер
Оператор: Фредди Фрэнсис
Композитор: Морис Жарр
В ролях: Брендан Фрейзер, Мэтт Дэймон, Крис О`Доннелл, Бен Аффлек, Рэндолл Батинкофф, Эндрю Лоури, Коул Хаузер, Энтони Рэпп, Эми Локэйн, Питер , Донат
Описание: Для героя этой картины, молодого человека по имени Дэйвид Грин, попасть в самый престижный колледж в Америке было чем-то из области фантастики. В стенах этого уважаемого учебного заведения из поколения в поколение получали образование дети аристократов и отпрыски богатейших семейств Америки.
Но Дэйвиду повезло: для него - простолюдина и выходца из глубокой провинции, впервые было сделано исключение. Его приняли в колледж и открыли заветную дорогу в Гарвардский университет. Теперь Грину нужно было совершить невозможное: доказать, что он достоин оказанной ему чести. Но у Дэйвида была одна тайна, тайна, которая в середине пятидесятых годов прошлого века могла изменить и обрушить всё.
И когда эта тайна, к несчастью, стала достоянием гласности, герою пришлось вступить в тяжелое противостояние со всеми, кого он считал своими друзьями.

Изображение
Изображение
MPAA:
Релиз, раздача группы: Изображение, Изображение
Качество: 1080i HDTV
Формат: MKV
Видео: 1920x1080 at 29.970 fps, MPEG-2, ~15500 kbps avg
Аудио: Russian: 48 kHz, AC3, 2/0 (L,R) ch, ~192.00 kbps avg |Многоголосый закадровый|
Аудио №2: English: 48 kHz, AC3, 2/0 (L,R) ch, ~384.00 kbps avg
Субтитры: Russian, English
M.I.
Общее
Уникальный идентификатор         : 236548661477359903082597117100754788591 (0xB1F59D738CB15853AEB0020F1B34E0EF)
Полное имя                       : E:\Фильмы\School.Ties.1080i.HDTV.Rus.Eng.HDCLUB.mkv
Формат                           : Matroska
Версия формата                   : Version 2
Размер файла                     : 12,3 Гбайт
Продолжительность                : 1 ч. 47 м.
Общий поток                      : 16,4 Мбит/сек
Дата кодирования                 : UTC 2011-07-18 05:20:05
Программа кодирования            : mkvmerge v3.4.0 ('Rapunzel') сборка от May 15 2010 09:38:20
Библиотека кодирования           : libebml v0.8.0 + libmatroska v0.9.0

Видео
Идентификатор                    : 1
Формат                           : MPEG Video
Версия формата                   : Version 2
Профиль формата                  : Main@High
Параметр BVOP формата            : Да
Параметр матрицы формата         : Выборочная
Идентификатор кодека             : V_MPEG2
Идентификатор кодека/Информация  : MPEG 1 or 2 Video
Продолжительность                : 1 ч. 47 м.
Вид битрейта                     : Переменный
Битрейт                          : 15,5 Мбит/сек
Максимальный битрейт             : 18,0 Мбит/сек
Ширина                           : 1920 пикс.
Высота                           : 1080 пикс.
Соотношение сторон               : 16:9
Частота кадров                   : 59,940 кадр/сек
Частота кадров в оригинале       : 29,970 кадр/сек
Цветовое пространство            : YUV
Подвыборка цветности             : 4:2:0
Битовая глубина                  : 8 бит
Тип развёртки                    : Чересстрочная
Порядок развёртки                : Верхнее поле первое
Метод сжатия                     : С потерями
Бит/(Пиксели*Кадры)              : 0.125
Размер потока                    : 11,6 Гбайт (94%)

Аудио #1
Идентификатор                    : 2
Формат                           : AC-3
Формат/Информация                : Audio Coding 3
Расширение режима                : CM (complete main)
Идентификатор кодека             : A_AC3
Продолжительность                : 1 ч. 47 м.
Вид битрейта                     : Постоянный
Битрейт                          : 192 Кбит/сек
Каналы                           : 2 канала
Расположение каналов             : Front: L R
Частота                          : 48,0 КГц
Битовая глубина                  : 16 бит
Метод сжатия                     : С потерями
Размер потока                    : 147 Мбайт (1%)
Заголовок                        : MVO
Язык                             : Russian

Аудио #2
Идентификатор                    : 3
Формат                           : AC-3
Формат/Информация                : Audio Coding 3
Расширение режима                : CM (complete main)
Идентификатор кодека             : A_AC3
Продолжительность                : 1 ч. 47 м.
Вид битрейта                     : Постоянный
Битрейт                          : 384 Кбит/сек
Каналы                           : 2 канала
Расположение каналов             : Front: L R
Частота                          : 48,0 КГц
Битовая глубина                  : 16 бит
Метод сжатия                     : С потерями
Размер потока                    : 295 Мбайт (2%)
Язык                             : English

Текст #1
Идентификатор                    : 4
Формат                           : UTF-8
Идентификатор кодека             : S_TEXT/UTF8
Идентификатор кодека/Информация  : UTF-8 Plain Text
Язык                             : Russian

Текст #2
Идентификатор                    : 5
Формат                           : UTF-8
Идентификатор кодека             : S_TEXT/UTF8
Идентификатор кодека/Информация  : UTF-8 Plain Text
Язык                             : English
Свернуть
Скриншоты
Изображение
Изображение
Изображение
Изображение
Изображение
Изображение
Свернуть


Последний раз редактировалось Биг 2013-10-11 20:08, всего редактировалось 2 раз(а).
Не в сети
Профиль  
 Добавлено: 2011-07-24 21:23 (спустя 3 часа)
Аватара пользователя
Стаж: 8 лет 7 месяцев
Сообщений: 314
Спасибок: 362
але!!!!!! раздавать будем? хочется сегодня посмотреть!!!!!!
Не в сети
Профиль  
Начать новую темуОтветить на тему  [ Сообщений: 2 ] 
Вы не можете начинать темы
Вы не можете отвечать на сообщения
Вы не можете редактировать свои сообщения
Вы не можете удалять свои сообщения