Правила форума

  • В этом разделе создание новых тем Запрещено.
  • Для создания новых тем пользуйтесь Корневым разделом DVD и HD фильмы.
Начать новую темуОтветить на тему  [ Сообщений: 2 ] 
Торрент файл
Размер: 3.18 GB • Зарегистрирован: 1 год • Статус: T Временный релиз
Скачан: 66 раз • Желающих скачать: 0 • Поблагодарили: 19 раз
 Раздают: 0  |  0 KB/s  ]   Качают: 0  |  0 KB/s  ] 
 Полного источника не было 15 часов 
Сообщения
 Добавлено: 2015-11-28 09:04
RG-ELEKTRO
Аватара пользователя
Стаж: 2 года 3 месяца
Сообщений: 7928
Спасибок: 53761
Лайков: 3304
Шнайдер против Бакса / Schneider vs. Bax


Изображение


Год выпуска: 2015
Страна: Нидерланды (Czar, Graniet Film BV, Mollywood, Verenigde Arbeiders Radio Amateurs (VARA))
Жанр: триллер, комедия
Продолжительность: 01:32:32
Перевод: Профессиональный (дубляж) [iTunes]


Режиссёр: Алекс ван Вармердам
В ролях: Том Де Виспеларе, Алекс ван Вармердам, Мария Краакман, Гене Бервутс, Аннет Мальэрб, Пьер Бокма, Анри Гарсен, Лоэс Хаверкорт, Ева ван де Вийдевен
Описание: Шнайдер — наемный убийца-профессионал. Даже в день своего рождения он обязан подчиниться заказчику, некоему Мертенсу, и ликвидировать Рамона Бакса, писателя, живущего в домишке на берегу озера, окруженного болотами. Киллеру приходится спешить — ведь дома его ждет праздничный обед в кругу семьи. Однако в этот день все идет наперекосяк. Непредвиденные обстоятельства то и дело возникают на пути Шнайдера, отодвигая исход операции. Он нервничает и не догадывается, что его жертва на самом деле тоже профессиональный гангстер, у которого он, Шнайдер, на мушке…

Изображение Изображение
Качество: WEB-DL 1080p
Формат: MKV
Видео кодек: MPEG-4 AVC
Аудио кодек: AC3
Видео: MPEG-4 AVC, 5120 kb/s, 1920x804
Аудио #1: AC3, 384 kb/s (6 ch) [Профессиональный (дубляж)]

"MI"
Format : Matroska
Format version : Version 2
File size : 3.18 GiB
Duration : 1h 36mn
Overall bit rate : 4 721 Kbps
Encoded date : UTC 2015-12-04 01:42:28
Writing application : mkvmerge v8.3.0 ('Over the Horizon') 64bit
Writing library : libebml v1.3.1 + libmatroska v1.4.2

Video
ID : 1
Format : AVC
Format/Info : Advanced Video Codec
Format profile : High@L4
Format settings, CABAC : Yes
Format settings, ReFrames : 5 frames
Codec ID : V_MPEG4/ISO/AVC
Duration : 1h 36mn
Bit rate : 4 243 Kbps
Width : 1 920 pixels
Height : 804 pixels
Display aspect ratio : 2.40:1
Frame rate mode : Constant
Frame rate : 24.000 fps
Color space : YUV
Chroma subsampling : 4:2:0
Bit depth : 8 bits
Scan type : Progressive
Bits/(Pixel*Frame) : 0.115
Stream size : 2.86 GiB (90%)
Language : English
Default : Yes
Forced : No
Color range : Limited
Color primaries : BT.709
Transfer characteristics : BT.709
Matrix coefficients : BT.709

Audio
ID : 2
Format : AC-3
Format/Info : Audio Coding 3
Mode extension : CM (complete main)
Format settings, Endianness : Big
Codec ID : A_AC3
Duration : 1h 36mn
Bit rate mode : Constant
Bit rate : 384 Kbps
Channel(s) : 6 channels
Channel positions : Front: L C R, Side: L R, LFE
Sampling rate : 48.0 KHz
Bit depth : 16 bits
Compression mode : Lossy
Stream size : 265 MiB (8%)
Language : Russian
Default : Yes
Forced : No

Menu
00:00:00.000 : en:Глава 1
00:05:14.000 : en:Глава 2
00:10:44.000 : en:Глава 3
00:15:51.000 : en:Глава 4
00:21:05.000 : en:Глава 5
00:27:06.000 : en:Глава 6
00:32:27.000 : en:Глава 7
00:38:00.000 : en:Глава 8
00:43:51.000 : en:Глава 9
00:49:50.000 : en:Глава 10
00:55:38.000 : en:Глава 11
01:01:07.000 : en:Глава 12
01:07:03.000 : en:Глава 13
01:12:09.000 : en:Глава 14
01:17:21.000 : en:Глава 15
01:22:28.000 : en:Глава 16
01:27:41.000 : en:Глава 17
Свернуть

Скриншоты
Изображение
Изображение
Изображение
Свернуть
Изображение


Изображение Изображение
Не в сети
Профиль  
 Добавлено: 2015-12-04 10:01 (спустя 6 дней)
RG-ELEKTRO
Аватара пользователя
Стаж: 2 года 3 месяца
Сообщений: 7928
Спасибок: 53761
Лайков: 3304
Заменен на iTunes
_________________
Не ищите меня в "ВКонтакте", в "Одноклассниках" меня нет - я на трекерах сижу!
Не в сети
Профиль  
Начать новую темуОтветить на тему  [ Сообщений: 2 ] 
Вы не можете начинать темы
Вы не можете отвечать на сообщения
Вы не можете редактировать свои сообщения
Вы не можете удалять свои сообщения