Правила форума

  • В этом разделе создание новых тем Запрещено.
  • Для создания новых тем пользуйтесь Корневым разделом DVD и HD фильмы.
Начать новую темуОтветить на тему  [ 1 сообщение ] 
Торрент файл
Размер: 16.84 GB • Зарегистрирован: 3 года 10 месяцев • Статус: Проверено
Скачан: 17 раз • Желающих скачать: 0 • Поблагодарили: 8 раз
 Раздают: 0  |  0 KB/s  ]   Качают: 0  |  0 KB/s  ] 
 Полного источника не было 1 год 10 месяцев 
Сообщения
 Добавлено: 2013-02-17 00:03
Модератор релиз-группы
Аватара пользователя
Стаж: 7 лет 8 месяцев
Возраст: 29
Сообщений: 9789
Спасибок: 23730
Лайков: 103
Изображение

Шоугелз
Showgirls


Год выпуска: 1995
Страна: Франция, США
Слоган: «The side of Vegas you were never mean't to see.»
Жанр: драма
Продолжительность: 02:11:22
Перевод: Профессиональный (многоголосый, закадровый)
Профессиональный (полное дублирование)
Авторский (Живов Юрий)

Режиссер: Пол Верховен
Сценарий: Джо Эстерхаз
Продюсер: Линн Эренспергер, Чарльз Эванс, Марио Кассар, Алан Маршалл, Бен Майрон
Оператор: Йост Вакано
Композитор: Дэвид Стюарт
В ролях: Элизабет Беркли, Кайл МакЛоклен, Джина Гершон, Гленн Пламмер, Роберт Дави, Алан Рачинс, Джина Равера, Лин Туччи, Грег Трэвис, Аль Руссо, Патрик Бристоу, Уильям Шокли
Бюджет: $45 000 000
Сборы в США: $20 350 754
Мировая премьера: 21 сентября 1995
Релиз на DVD: 30 июля 2009, «CP-Digital»
Описание: Молодая длинноногая танцовщица Номи отчаянно пытается добиться успеха в Лас-Вегасе и проникнуть в блистающий мир ярких огней, блеска и света шоу - сцены. Чтобы удержаться «на плаву», она соглашается на единственно возможную работу - стриптиз, пока ей не удается вытянуть свой счастливый билет - познакомиться с королевой сцены Лас-Вегаса Кристал.
Используя свое влияние, Кристал устраивает Номи в свое шоу и вводит ее в истинный мир шоу-бизнеса Лас-Вегаса - мир случая, предательства и интриг, в котором сексуальность можно использовать как власть.


Изображение User Rating: 6.908 (13 008)
Изображение User Rating: 4.30 (35 240)
MPAA: NC-17 - Лицам до 17 лет просмотр запрещен
Раздача группы: Изображение
Качество: BDRip, 1080p
Формат: MKV
Видео: AVC; 1920x798 (2.40:1); 15329 Kbps; 23,976 fps; 0,417 bit/pixel
Аудио №1: русский; AC3; 448 Kbps; CBR; 6 ch
Аудио №2: русский; AC3; 448 Kbps; CBR; 6 ch
Аудио №3: русский; AC3; 256 Kbps; CBR; 2 ch
Аудио №4: английский; DTS; 1510 Kbps; CBR; 6 ch; 24 bit

Субтитры №1: русские
Субтитры №2: английские

mediainfo
Общее
Уникальный идентификатор : 185700592772766777821174042109706732077 (0x8BB4A21B6FD591379B81A468525B822D)
Полное имя : D:\TORRENT\Showgirls.1995.x264.BDRip.1080p.kinozal.tv-HD\Showgirls.[R.G.Daredevil].mkv
Формат : Matroska
Размер файла : 16,8 Гбайт
Продолжительность : 2 ч. 11 м.
Общий поток : 18,4 Мбит/сек
Дата кодирования : UTC 2010-06-09 07:55:48
Программа кодирования : mkvmerge v3.1.0 ('Happy up here') built on Jan 19 2010 12:09:24
Библиотека кодирования : libebml v0.7.9 + libmatroska v0.8.1

Видео
Идентификатор : 1
Формат : AVC
Формат/Информация : Advanced Video Codec
Профиль формата : High@L4.1
Параметр CABAC формата : Да
Параметр ReFrames формата : 5 кадров
Идентификатор кодека : V_MPEG4/ISO/AVC
Продолжительность : 2 ч. 11 м.
Битрейт : 15,7 Мбит/сек
Ширина : 1920 пикс.
Высота : 798 пикс.
Соотношение сторон : 2,40:1
Частота кадров : 23,976 кадр/сек
Цветовое пространство : YUV
Подвыборка цветности : 4:2:0
Битовая глубина : 8 бит
Тип развёртки : Прогрессивная
Бит/(Пиксели*Кадры) : 0.428
Размер потока : 14,1 Гбайт (84%)
Заголовок : Showgirls.1995
Библиотека кодирования : x264 core 88 r1471 1144615
Настройки программы : cabac=1 / ref=5 / deblock=1:-3:-3 / analyse=0x3:0x113 / me=umh / subme=10 / psy=1 / psy_rd=1.05:0.10 / mixed_ref=1 / me_range=48 / chroma_me=1 / trellis=2 / 8x8dct=1 / cqm=2 / deadzone=21,11 / fast_pskip=0 / chroma_qp_offset=-2 / threads=12 / sliced_threads=0 / nr=0 / decimate=1 / mbaff=0 / constrained_intra=0 / bframes=4 / b_pyramid=2 / b_adapt=2 / b_bias=0 / direct=3 / wpredb=1 / wpredp=2 / keyint=250 / keyint_min=25 / scenecut=40 / intra_refresh=0 / rc_lookahead=60 / rc=2pass / mbtree=1 / bitrate=15705 / ratetol=2.0 / qcomp=0.70 / qpmin=10 / qpmax=51 / qpstep=4 / cplxblur=20.0 / qblur=0.5 / vbv_maxrate=50000 / vbv_bufsize=50000 / ip_ratio=1.40 / aq=1:1.00
Язык : English

Аудио #1
Идентификатор : 2
Формат : AC-3
Формат/Информация : Audio Coding 3
Расширение режима : CM (complete main)
Идентификатор кодека : A_AC3
Продолжительность : 2 ч. 11 м.
Вид битрейта : Постоянный
Битрейт : 448 Кбит/сек
Каналы : 6 каналов
Расположение каналов : Front: L C R, Side: L R, LFE
Частота : 48,0 КГц
Битовая глубина : 16 бит
Метод сжатия : С потерями
Размер потока : 421 Мбайт (2%)
Заголовок : DUB
Язык : Russian

Аудио #2
Идентификатор : 3
Формат : AC-3
Формат/Информация : Audio Coding 3
Расширение режима : CM (complete main)
Идентификатор кодека : A_AC3
Продолжительность : 2 ч. 11 м.
Вид битрейта : Постоянный
Битрейт : 448 Кбит/сек
Каналы : 6 каналов
Расположение каналов : Front: L C R, Side: L R, LFE
Частота : 48,0 КГц
Битовая глубина : 16 бит
Метод сжатия : С потерями
Размер потока : 421 Мбайт (2%)
Заголовок : MVO
Язык : Russian

Аудио #3
Идентификатор : 4
Формат : AC-3
Формат/Информация : Audio Coding 3
Расширение режима : CM (complete main)
Идентификатор кодека : A_AC3
Продолжительность : 2 ч. 11 м.
Вид битрейта : Постоянный
Битрейт : 256 Кбит/сек
Каналы : 2 канала
Расположение каналов : Front: L R
Частота : 48,0 КГц
Битовая глубина : 16 бит
Метод сжатия : С потерями
Размер потока : 241 Мбайт (1%)
Заголовок : AVO
Язык : Russian

Аудио #4
Идентификатор : 5
Формат : DTS
Формат/Информация : Digital Theater Systems
Идентификатор кодека : A_DTS
Продолжительность : 2 ч. 11 м.
Вид битрейта : Постоянный
Битрейт : 1510 Кбит/сек
Каналы : 6 каналов
Расположение каналов : Front: L C R, Side: L R, LFE
Частота : 48,0 КГц
Битовая глубина : 24 бит
Метод сжатия : С потерями
Размер потока : 1,39 Гбайт (8%)
Заголовок : DTS-HD MA CORE 1536K
Язык : English

Текст #1
Идентификатор : 6
Формат : UTF-8
Идентификатор кодека : S_TEXT/UTF8
Идентификатор кодека/Информация : UTF-8 Plain Text
Язык : Russian

Текст #2
Идентификатор : 7
Формат : UTF-8
Идентификатор кодека : S_TEXT/UTF8
Идентификатор кодека/Информация : UTF-8 Plain Text
Язык : English

Свернуть
"Знаете ли Вы, что..."
  • Единственной сценой, снятой внутри казино Лас-Вегаса, стала самая первая сцена, где Номи играет на игровых автоматах.
  • Джо Эстерхас придумал имя Номи Малоун (Nomi Malone), соединив вместе прозвище своей жены - Номи (её настоящее имя Наоми) и фамилию Малоун (Malone), посчитав, что она созвучна со словом «одинокий» (alone).
  • Для съёмок танцевальных сцен Элизабет Беркли работала по шестнадцать часов в сутки на высоких каблуках.
  • Шарлиз Терон проходила пробы на роль Номи Малоун.
  • Шэрон Стоун пробовалась на роль Кристал Коннорс.
  • Джина Гершон отказалась воспроизвести известную сцену с перехлестом ног из «Основного инстинкта» (1992).
  • Дженни МакКарти проходила пробы на главную роль и практически получила ее, но в самый последний момент выяснилось, что она не умеет танцевать.
  • Пол Верховен и Джо Эстерхас планировали сделать продолжение фильма, в котором Номи отправлялась в Лос-Анджелес покорять Голливуд.
  • В отредактированной версии фильма для телевидения Пол Верховен указан в титрах, как Йен Йенсен.
  • Финола Хьюз проходила пробы на роль Кристал Коннорс.
  • Джо Эстерхас придумал сюжет фильма, находясь на отдыхе на Гавайях. Джо получил $2 миллиона в качестве аванса и еще $1,7 миллиона после того, как завершились съёмки.
  • Продюсеры хотели, чтобы Мадонна исполнила роль Кристал Коннерс, а Дрю Бэрримор сыграла Номи Малоун.
  • Впервые в истории премии «Золотая малина» режиссер фильма (Пол Верховен) лично посетил церемонию, чтобы получить награды в категории «Худший режиссер» и «Худший фильм».
  • После того как фильм провалился в прокате и получил семь «Золотых малин», студия «MGM/UA» попыталась повернуть подобную ситуацию в свою пользу, начав рекламировать фильм, как «культовое кино в полночь»: в газетах Лос-Анджелеса была размещена реклама ночных сеансов, где среди прочего упоминалось, что картина получила семь премий «Золотая малина». Несмотря на нестандартный подход, данная рекламная компания также не увенчалась успехом.
  • По состоянию на начало 2008 год «Шоугелз» удерживает рекорд фильма с рейтингом NC-17, вышедшего в наибольшем количестве кинотеатров - 1388.
Свернуть
Скриншоты

Изображение
Изображение
Изображение
Изображение
Изображение
Изображение
Изображение
Изображение
Свернуть


Тема поднималась пользователем volkov2009 2013-02-17 00:03.
Не в сети
Профиль  
Начать новую темуОтветить на тему  [ 1 сообщение ] 
Вы не можете начинать темы
Вы не можете отвечать на сообщения
Вы не можете редактировать свои сообщения
Вы не можете удалять свои сообщения