Правила форума

  • В этом разделе создание новых тем Запрещено.
  • Для создания новых тем пользуйтесь Корневым разделом DVD и HD фильмы.
Начать новую темуОтветить на тему  [ Сообщений: 4 ] 
Торрент файл
Размер: 5.22 GB • Зарегистрирован: 4 года 8 месяцев • Статус: Проверено
Скачан: 100 раз • Желающих скачать: 0 • Поблагодарили: 14 раз
 Раздают: 0  |  0 KB/s  ]   Качают: 0  |  0 KB/s  ] 
 Полного источника не было 3 года 2 месяца 
Сообщения
 Добавлено: 2012-03-22 17:40
Аватара пользователя
Стаж: 4 года 11 месяцев
Сообщений: 24
Спасибок: 356
Шрамы 3D
Paranormal Xperience 3D


«Эксперименты с паранормальным продолжаются»

Изображение


Год выхода: 2011
Страна: Испания

Жанр: ужасы, триллер
Продолжительность: 01:30:13
Перевод: Дублированное [лицензия]

Режиссер: Серджо Визкано
Сценарий: Дэни Падро
Продюсер: Мерседес Гамеро, Хоакин Падро, Мар Тарганова
Оператор: Серджо Бартоли
Композитор: Марк Ваийо

В ролях: Амайя Саламанка, Макси Иглесиас, Эдуард Фарело, Луис Фернандез, Урсула Корберо, Мануэль Де Блас, Альба Рибас, Мигель Анхель Дженнер, Оскар Синела

Описание: Шестеро студентов медицинского института отправляются в заброшенную сеть пещер, где, по легенде, до сих пор блуждает призрак умершего доктора. Молодые люди уверены, что встречи с паранормальным в наш современный век — не более чем игра воображения. Да и экспедиция организована исключительно ради исследования мифов о человеческом подсознании. Но, оказавшись в пещерах, путешественники неожиданно начинают погибать один за другим самыми страшными способами…

Изображение

Изображение

Бюджет: €3 200 000
Cборы в России:$821 359

Качество BDRip 720p R5
Формат: Mkv

Видео: MPEG4 Video (H264) 1280x690 23.98fps
Аудио : DTS 48000Hz 6ch 1 510 Kbps
Subtitle: Utf-8 (Rus)

Изображение

MediaInfo
General
Unique ID : 206547451932943054283396335938510893347 (0x9B63979E7256E02DA34B17C41AF5B123)
Complete name : E:\Download\Shram.2011.DVD_RG.BDRip.720p.x264.mkv
Format : Matroska
Format version : Version 2
File size : 5.22 GiB
Duration : 1h 30mn
Overall bit rate : 8 284 Kbps
Movie name : Rip by Kim
Encoded date : UTC 2012-03-22 06:58:59
Writing application : mkvmerge v5.3.0 ('I could have danced') built on Feb 9 2012 10:38:07
Writing library : libebml v1.2.3 + libmatroska v1.3.0

Video
ID : 1
Format : AVC
Format/Info : Advanced Video Codec
Format profile : High@L4.1
Format settings, CABAC : Yes
Format settings, ReFrames : 9 frames
Codec ID : V_MPEG4/ISO/AVC
Duration : 1h 30mn
Bit rate : 6 773 Kbps
Width : 1 280 pixels
Height : 690 pixels
Display aspect ratio : 1.855
Frame rate : 23.976 fps
Color space : YUV
Chroma subsampling : 4:2:0
Bit depth : 8 bits
Scan type : Progressive
Bits/(Pixel*Frame) : 0.320
Stream size : 4.17 GiB (80%)
Title : IRONCLUB.TV
Writing library : x264 core 120 r2164 da19765
Encoding settings : cabac=1 / ref=9 / deblock=1:-3:-3 / analyse=0x3:0x133 / me=umh / subme=11 / psy=1 / psy_rd=0.90:0.15 / mixed_ref=1 / me_range=32 / chroma_me=1 / trellis=2 / 8x8dct=1 / cqm=0 / deadzone=21,11 / fast_pskip=0 / chroma_qp_offset=-3 / threads=12 / sliced_threads=0 / nr=0 / decimate=1 / interlaced=0 / bluray_compat=0 / constrained_intra=0 / bframes=9 / b_pyramid=2 / b_adapt=2 / b_bias=0 / direct=3 / weightb=1 / open_gop=0 / weightp=2 / keyint=240 / keyint_min=22 / scenecut=40 / intra_refresh=0 / rc_lookahead=40 / rc=2pass / mbtree=1 / bitrate=6773 / ratetol=1.0 / qcomp=0.60 / qpmin=0 / qpmax=69 / qpstep=4 / cplxblur=20.0 / qblur=0.5 / vbv_maxrate=50000 / vbv_bufsize=62500 / nal_hrd=none / ip_ratio=1.40 / aq=2:1.00
Language : English
Default : Yes
Forced : No

Audio
ID : 2
Format : DTS
Format/Info : Digital Theater Systems
Codec ID : A_DTS
Duration : 1h 30mn
Bit rate mode : Constant
Bit rate : 1 510 Kbps
Channel(s) : 6 channels
Channel positions : Front: L C R, Side: L R, LFE
Sampling rate : 48.0 KHz
Bit depth : 24 bits
Compression mode : Lossy
Stream size : 974 MiB (18%)
Language : Russian
Default : Yes
Forced : No

Text
ID : 3
Format : UTF-8
Codec ID : S_TEXT/UTF8
Codec ID/Info : UTF-8 Plain Text
Language : Russian
Default : No
Forced : No

Menu
00:00:00.000 : en:00:00:00.000
00:06:35.854 : en:00:06:35.854
00:10:04.813 : en:00:10:04.813
00:14:39.253 : en:00:14:39.253
00:19:37.134 : en:00:19:37.134
00:26:39.097 : en:00:26:39.097
00:34:44.291 : en:00:34:44.291
00:40:34.641 : en:00:40:34.641
00:45:53.376 : en:00:45:53.376
00:50:33.489 : en:00:50:33.489
00:55:55.852 : en:00:55:55.852
01:00:20.909 : en:01:00:20.909
01:06:07.797 : en:01:06:07.797
01:12:58.249 : en:01:12:58.249
01:17:00.574 : en:01:17:00.574
01:21:48.237 : en:01:21:48.237


Свернуть
Скриншоты
Изображение

Изображение

Изображение

Изображение

Изображение

Свернуть
Не в сети
Профиль  
 Добавлено: 2012-03-23 21:07 (спустя 1 день 3 часа)
Аватара пользователя
Стаж: 9 лет 1 месяц
Возраст: 31
Сообщений: 581
Спасибок: 771
нормальный фильм!
_________________
Изображение
Не в сети
Профиль  
 Добавлено: 2012-03-26 21:54 (спустя 3 дня)
Аватара пользователя
Стаж: 4 года 10 месяцев
Сообщений: 67
на один раз!!!- у холмов есть глаза гораздо мощьнее
Не в сети
Профиль  
 Добавлено: 2012-10-21 19:04 (спустя 6 месяцев)
Аватара пользователя
Стаж: 6 лет 5 месяцев
Сообщений: 138
Спасибок: 1118
Лайков: 1
Не пойму как это можно назвать нормальным фильмом!Пародия на ужастик,редкостное уг!
_________________
Изображение
Не в сети
Профиль  
Начать новую темуОтветить на тему  [ Сообщений: 4 ] 
Вы не можете начинать темы
Вы не можете отвечать на сообщения
Вы не можете редактировать свои сообщения
Вы не можете удалять свои сообщения