Правила форума

  • В этом разделе создание новых тем Запрещено.
  • Для создания новых тем пользуйтесь Корневым разделом DVD и HD фильмы.
Начать новую темуОтветить на тему  [ 1 сообщение ] 
Торрент файл
Размер: 2.81 GB • Зарегистрирован: 6 месяцев • Статус: T Временный релиз
Скачан: 50 раз • Желающих скачать: 0 • Поблагодарили: 7 раз
 Раздают: 3  |  128 KB/s  ]   Качают: 0  |  0 KB/s  ] 
Сообщения
 Добавлено: 2016-05-22 09:04
RG-ELEKTRO
Аватара пользователя
Стаж: 2 года 3 месяца
Сообщений: 7928
Спасибок: 53790
Лайков: 3304
Штормагеддон / Stormageddon


Изображение


Год выпуска: 2015
Страна: США (Cinetel Films)
Жанр: фантастика, боевик, триллер, драма
Продолжительность: 01:25:37
Перевод: Профессиональный (многоголосый закадровый) + Оригинальная звуковая дорожка

Режиссёр: Ник Лион
В ролях: Джон Хенниган, Ив Мауро, Джозеф Гатт, Роберт Бланш, Рикко Росс, Дэвид Шатроу, Эдриан Пол, Дэвид Престон, Джон Мак, Роберт Крэйгхед
Описание: Страшно представить, что может произойти, если сложнейшая вычислительная система начнет управлять всеми процессами на земле. Такая система быстро проанализирует и сохранит множество данных, а после выйдет из-под контроля и сама получит полный контроль над жизнью людей. Однажды программа под названием "Эшелон", управлявшая едва ли не всей жизнью США, дала сбой. Под угрозой оказалась безопасность всей страны. Проникнув в Управление перспективных оборонных исследований, программа "Эшелон" получила возможность манипулировать погодой и даже управлять землетрясениями...

Изображение Изображение Изображение
Качество: BDRip 720p
Формат: MKV
Видео кодек: MPEG-4 AVC
Аудио кодек: AC3
Видео: MPEG-4 AVC, 3770 kb/s, 1280x720
Аудио #1: AC3, 192 kb/s (2 ch) [Профессиональный (многоголосый закадровый)]
Аудио #2: English: AC3, 640 Kb/s (6 ch) [Оригинальная звуковая дорожка]
Субтитры: German

"MI"
Общее
Уникальный идентификатор : 192469425724047815350226837438010905684 (0x90CC435676F35581B92441183B7E5454)
Полное имя : D:\фильмы\Shtormageddon.2015.P.BDRip.720p.mkv
Формат : Matroska
Версия формата : Version 4 / Version 2
Размер файла : 2,81 Гбайт
Продолжительность : 1 ч. 25 м.
Общий поток : 4696 Кбит/сек
Название фильма : Stormageddon.2015.720p.BluRay.DD5.1.x264-OmertaHD
Дата кодирования : UTC 2016-05-21 14:37:17
Программа кодирования : mkvmerge v6.8.0 ('Theme for Great Cities') 64bit built on Mar 2 2014 21:34:26
Библиотека кодирования : libebml v1.3.0 + libmatroska v1.4.1

Видео
Идентификатор : 1
Формат : AVC
Формат/Информация : Advanced Video Codec
Профиль формата : High@L4.1
Параметр CABAC формата : Да
Параметр ReFrames формата : 9 кадров
Идентификатор кодека : V_MPEG4/ISO/AVC
Продолжительность : 1 ч. 25 м.
Битрейт : 3770 Кбит/сек
Ширина : 1280 пикселей
Высота : 720 пикселей
Соотношение сторон : 16:9
Режим частоты кадров : Постоянный
Частота кадров : 23,976 (24000/1001) кадра/сек
Цветовое пространство : YUV
Субдискретизация насыщенности : 4:2:0
Битовая глубина : 8 бит
Тип развёртки : Прогрессивная
Бит/(Пиксели*Кадры) : 0.171
Размер потока : 2,25 Гбайт (80%)
Библиотека кодирования : x264 core 148 r2692kMod 64f4e24
Настройки программы : cabac=1 / ref=9 / deblock=1:-3:-3 / analyse=0x3:0x133 / me=umh / subme=10 / psy=1 / fade_compensate=0.00 / psy_rd=0.80:0.00 / mixed_ref=1 / me_range=32 / chroma_me=1 / trellis=2 / 8x8dct=1 / cqm=0 / deadzone=21,11 / fast_pskip=1 / chroma_qp_offset=-2 / threads=6 / lookahead_threads=1 / sliced_threads=0 / nr=0 / decimate=1 / interlaced=0 / bluray_compat=0 / constrained_intra=0 / fgo=0 / bframes=7 / b_pyramid=2 / b_adapt=2 / b_bias=0 / direct=3 / weightb=1 / open_gop=0 / weightp=2 / keyint=250 / keyint_min=23 / scenecut=40 / intra_refresh=0 / rc=crf / mbtree=0 / crf=17.1000 / qcomp=0.48 / qpmin=0 / qpmax=69 / qpstep=4 / ip_ratio=1.28 / pb_ratio=1.20 / aq=3:0.59 / zones=4725,5321,crf=14.5/5362,5436,crf=14.5/5905,6032,crf=14.5/6150,6538,crf=14.5/6926,7412,crf=14.5
Язык : English
Default : Да
Forced : Нет

Аудио #1
Идентификатор : 2
Формат : AC-3
Формат/Информация : Audio Coding 3
Расширение режима : CM (complete main)
Параметр Endianness формата : Big
Идентификатор кодека : A_AC3
Продолжительность : 1 ч. 25 м.
Вид битрейта : Постоянный
Битрейт : 192 Кбит/сек
Каналы : 2 канала
Расположение каналов : Front: L R
Частота : 48,0 КГц
Частота кадров : 31,250 кадров/сек (1536 spf)
Метод сжатия : С потерями
Размер потока : 118 Мбайт (4%)
Язык : Russian
Default : Да
Forced : Да

Аудио #2
Идентификатор : 3
Формат : AC-3
Формат/Информация : Audio Coding 3
Расширение режима : CM (complete main)
Параметр Endianness формата : Big
Идентификатор кодека : A_AC3
Продолжительность : 1 ч. 25 м.
Вид битрейта : Постоянный
Битрейт : 640 Кбит/сек
Каналы : 6 каналов
Расположение каналов : Front: L C R, Side: L R, LFE
Частота : 48,0 КГц
Частота кадров : 31,250 кадров/сек (1536 spf)
Метод сжатия : С потерями
Размер потока : 392 Мбайт (14%)
Язык : English
Default : Нет
Forced : Нет

Текст
Идентификатор : 4
Формат : UTF-8
Идентификатор кодека : S_TEXT/UTF8
Идентификатор кодека/Информация : UTF-8 Plain Text
Язык : German
Default : Да
Forced : Нет

Свернуть

Скриншоты
Изображение
Изображение
Изображение
Свернуть
Изображение


Изображение Изображение
_________________
Не ищите меня в "ВКонтакте", в "Одноклассниках" меня нет - я на трекерах сижу!
Не в сети
Профиль  
Начать новую темуОтветить на тему  [ 1 сообщение ] 
Вы не можете начинать темы
Вы не можете отвечать на сообщения
Вы не можете редактировать свои сообщения
Вы не можете удалять свои сообщения