Правила форума

  • В этом разделе создание новых тем Запрещено.
  • Для создания новых тем пользуйтесь Корневым разделом DVD и HD фильмы.
Начать новую темуОтветить на тему  [ Сообщений: 4 ] 
Торрент файл
Размер: 8.89 GB • Зарегистрирован: 3 года 5 месяцев • Статус: Проверено
Скачан: 248 раз • Желающих скачать: 0 • Поблагодарили: 69 раз
 Раздают: 0  |  0 KB/s  ]   Качают: 0  |  0 KB/s  ] 
 Полного источника не было 1 год 1 месяц 
Сообщения
 Добавлено: 2013-06-14 19:18
Аватара пользователя
Стаж: 9 лет 1 месяц
Сообщений: 8083
Спасибок: 122310
Лайков: 1195
Шутки в сторону / De l'autre cote du periph

Изображение


Год выпуска: 2012
Страна: Изображение Франция
Жанр: комедия, криминал, детектив
Продолжительность: 01:34:44
Перевод: Профессиональный (полное дублирование) [Лицензия]


Режиссер: Давид Шарон
Сценарий: Давид Шарон, Реми Фур, Жюльен Уор
Продюсер: Эрик Альтмайер, Николас Альтмайер
Оператор: Ален Дюплантье
Композитор: Людовик Бурсе

В ролях: Омар Си, Лоран Лафитт, Сабрина Уазани, Лионель Абелански, Юсеф Хаджди, Максим Мотт, Лео Леотье, Андре Маркон, Забу Брайтман, Патрик Боннель

Описание: Усман, дерзкий коп из парижского пригорода, и Франсуа, амбициозный столичный полицейский, объединяют усилия в расследовании убийства жены большого чиновника. Усман и Франсуа — разные. Усман живет по законам комедий с Эдди Мерфи, Франсуа обожает Бельмондо в «Профессионале» и «Смертельное оружие». Но расхождение в киновкусах — ничто, когда на кону громкое разоблачение коррупции в самых верхах и, конечно, дружба! Один плюс один = команда, а шутки — в сторону!

Изображение Изображение

Релиз группы: Изображение Раздача группы: Изображение

Качество: BDRip (1080p)
Формат: Matroska
Видео: MPEG-4 AVC, 10,4 Мбит/с, 1920x804
Аудио №1: Русский (DTS, 48,0 КГц, 6 ch, 1510 Кбит/c)
Аудио №2: Французский (DTS, 48,0 КГц, 6 ch, 1510 Кбит/c)

MediaInfo
Общее
Уникальный идентификатор : 223258249047533260145299245531552469119 (0xA7F5F987112EF836A79408BCAFF2D07F)
Полное имя : C:\Фильмы\Shutki.v.storonu.2012.D.BDRip.1080p.R.G.Daredevil.mkv
Формат : Matroska
Версия формата : Version 2
Размер файла : 8,89 Гбайт
Продолжительность : 1 ч. 34 м.
Общий поток : 13,4 Мбит/сек
Название фильма : IRONCLUB
Дата кодирования : UTC 2013-06-14 14:02:14
Программа кодирования : mkvmerge v5.2.0 ('I can't explain') built on Dec 18 2011 18:12:03
Библиотека кодирования : libebml v1.2.3 + libmatroska v1.3.0

Видео
Идентификатор : 1
Формат : AVC
Формат/Информация : Advanced Video Codec
Профиль формата : High@L4.1
Параметр CABAC формата : Да
Параметр ReFrames формата : 4 кадра
Идентификатор кодека : V_MPEG4/ISO/AVC
Продолжительность : 1 ч. 34 м.
Битрейт : 10,4 Мбит/сек
Ширина : 1920 пикселей
Высота : 804 пикселя
Соотношение сторон : 2,40:1
Режим частоты кадров : Постоянный
Частота кадров : 24,000 кадра/сек
Цветовое пространство : YUV
Субдискретизация насыщенности : 4:2:0
Битовая глубина : 8 бит
Тип развёртки : Прогрессивная
Бит/(Пиксели*Кадры) : 0.281
Размер потока : 6,71 Гбайт (76%)
Заголовок : De.L.Autre.Cote.Du.Periph.2012.FRENCH.1080p.BluRay.x264-CMBHD
Библиотека кодирования : x264 core 130 r2273 b3065e6
Настройки программы : cabac=1 / ref=4 / deblock=1:-1:-1 / analyse=0x3:0x133 / me=umh / subme=10 / psy=1 / psy_rd=1.05:0.15 / mixed_ref=1 / me_range=32 / chroma_me=1 / trellis=2 / 8x8dct=1 / cqm=0 / deadzone=21,11 / fast_pskip=0 / chroma_qp_offset=-3 / threads=12 / lookahead_threads=2 / sliced_threads=0 / nr=0 / decimate=1 / interlaced=0 / bluray_compat=0 / constrained_intra=0 / bframes=7 / b_pyramid=2 / b_adapt=2 / b_bias=0 / direct=3 / weightb=1 / open_gop=0 / weightp=2 / keyint=240 / keyint_min=23 / scenecut=40 / intra_refresh=0 / rc=2pass / mbtree=0 / bitrate=10423 / ratetol=1.0 / qcomp=0.60 / qpmin=0 / qpmax=69 / qpstep=4 / cplxblur=20.0 / qblur=0.5 / ip_ratio=1.40 / pb_ratio=1.30 / aq=1:0.80
Язык : French
Default : Да
Forced : Да

Аудио #1
Идентификатор : 2
Формат : DTS
Формат/Информация : Digital Theater Systems
Режим : 16
Параметр Endianness формата : Big
Идентификатор кодека : A_DTS
Продолжительность : 1 ч. 34 м.
Вид битрейта : Постоянный
Битрейт : 1510 Кбит/сек
Каналы : 6 каналов
Расположение каналов : Front: L C R, Side: L R, LFE
Частота : 48,0 КГц
Битовая глубина : 24 бит
Метод сжатия : С потерями
Размер потока : 1023 Мбайт (11%)
Заголовок : DTS 5.1 @ 1536 kbps - Dub, BD RUS
Язык : Russian
Default : Да
Forced : Да

Аудио #2
Идентификатор : 3
Формат : DTS
Формат/Информация : Digital Theater Systems
Режим : 16
Параметр Endianness формата : Big
Идентификатор кодека : A_DTS
Продолжительность : 1 ч. 34 м.
Вид битрейта : Постоянный
Битрейт : 1509 Кбит/сек
Каналы : 6 каналов
Расположение каналов : Front: L C R, Side: L R, LFE
Частота : 48,0 КГц
Битовая глубина : 16 бит
Метод сжатия : С потерями
Задержка видео : 11 мс.
Размер потока : 1022 Мбайт (11%)
Заголовок : DTS 5.1 @ 1536 kbps
Язык : French
Default : Нет
Forced : Нет

Меню
00:00:00.000 : en:00:00:00.000
00:06:09.250 : en:00:06:09.250
00:14:14.333 : en:00:14:14.333
00:21:18.458 : en:00:21:18.458
00:28:37.083 : en:00:28:37.083
00:36:51.250 : en:00:36:51.250
00:44:17.333 : en:00:44:17.333
00:53:46.125 : en:00:53:46.125
01:02:25.125 : en:01:02:25.125
01:12:11.167 : en:01:12:11.167
01:20:24.333 : en:01:20:24.333
01:30:10.542 : en:01:30:10.542
Свернуть
Скриншоты
Изображение
Изображение
Изображение
Изображение
Свернуть
В сети
Профиль  
 Добавлено: 2013-06-27 20:47 (спустя 13 дней)
Стаж: 6 лет 9 месяцев
Сообщений: 33
Спасибок: 3
Люблю я французские комедии, но эта меня откровенно разочаровала. Зря потратил время.
Не в сети
Профиль  
 Добавлено: 2013-07-02 07:30 (спустя 4 дня)
Аватара пользователя
Стаж: 9 лет 1 месяц
Возраст: 28
Сообщений: 141
Спасибок: 911
Ну посмотреть можно, правда на 1 раз. Я бы поставил 7/10
Не в сети
Профиль  
 Добавлено: 2013-07-02 19:14 (спустя 11 часов)
Кинокомментатор
Аватара пользователя
Стаж: 9 лет 1 месяц
Сообщений: 1332
Лайков: 54
а я вот точно времени зря не потратил!:) всё легко) позитивно! мне приглянулось:) опять же на что то кроме америки и россии взглянул:)
7/10 достойно в "затишье":)
Не в сети
Профиль  
Начать новую темуОтветить на тему  [ Сообщений: 4 ] 
Вы не можете начинать темы
Вы не можете отвечать на сообщения
Вы не можете редактировать свои сообщения
Вы не можете удалять свои сообщения