Правила форума

  • В этом разделе создание новых тем Запрещено.
  • Для создания новых тем пользуйтесь Корневым разделом DVD и HD фильмы.
Начать новую темуОтветить на тему  [ Сообщений: 3 ] 
Торрент файл
Размер: 8.05 GB • Зарегистрирован: 3 года 5 месяцев • Статус: Проверено
Скачан: 24 раза • Желающих скачать: 0 • Поблагодарили: 7 раз
 Раздают: 0  |  0 KB/s  ]   Качают: 0  |  0 KB/s  ] 
 Полного источника не было 1 год 5 месяцев 
Сообщения
 Добавлено: 2013-06-19 17:34
Книголюб
Аватара пользователя
Стаж: 7 лет 2 месяца
Сообщений: 2823
Спасибок: 48826
Лайков: 73
Шутки в сторону
De l'autre côté du périph

Изображение


Год выпуска: 2012
Страна: Франция
Жанр: комедия, криминал, детектив
Продолжительность: 01:34:44
Перевод: Профессиональный (дубляж)

Режиссёр: Давид Шарон
В ролях: Омар Си, Лоран Лафитт, Сабрина Уазани, Лионель Абелански, Юсеф Хаджди, Максим Мотт, Лео Леотье, Андре Маркон, Забу Брайтман, Патрик Боннель
Описание: Усман, дерзкий коп из парижского пригорода, и Франсуа, амбициозный столичный полицейский, объединяют усилия в расследовании убийства жены большого чиновника. Усман и Франсуа — разные. Усман живет по законам комедий с Эдди Мерфи, Франсуа обожает Бельмондо в «Профессионале» и «Смертельное оружие». Но расхождение в киновкусах — ничто, когда на кону громкое разоблачение коррупции в самых верхах и, конечно, дружба! Один плюс один = команда, а шутки — в сторону!
Мировая премьера: 19 декабря 2012
Премьера в России: 9 мая 2013, «Экспонента», «Арена»
Изображение 6.3883894

Качество: BDRip 1080p
Формат: MKV
Видео кодек: H264 (AVC)
Аудио кодек: AC3 (Dolby Digital)
Видео: 1920x804 24fps 10.9 Mbps
Аудио #1: Русский: 48000Hz 6ch 640 Kbps
Аудио #2: Французский: 48000Hz 6ch 640 Kbps
MediaInfo
General
Unique ID : 231953483538220701031407689991196360418 (0xAE809DAFE3DA0542BEAA4B4D9CF9BEE2)
Complete name : K:\Torrent\De.lautre.cote.du.periph..mkv
Format : Matroska
Format version : Version 4 / Version 2
File size : 8.05 GiB
Duration : 1h 34mn
Overall bit rate : 12.2 Mbps
Movie name : De l'autre côté du périph (2012) by Killbrain
Encoded date : UTC 2013-06-18 15:49:24
Writing application : mkvmerge v6.2.0 ('Promised Land') built on Apr 28 2013 12:22:01
Writing library : libebml v1.3.0 + libmatroska v1.4.0

Video
ID : 1
Format : AVC
Format/Info : Advanced Video Codec
Format profile : High@L4.1
Format settings, CABAC : Yes
Format settings, ReFrames : 4 frames
Codec ID : V_MPEG4/ISO/AVC
Duration : 1h 34mn
Bit rate : 10.9 Mbps
Width : 1 920 pixels
Height : 804 pixels
Display aspect ratio : 2.40:1
Frame rate : 24.000 fps
Color space : YUV
Chroma subsampling : 4:2:0
Bit depth : 8 bits
Scan type : Progressive
Bits/(Pixel*Frame) : 0.294
Stream size : 7.05 GiB (87%)
Title : De l'autre côté du périph (2012)
Writing library : x264 core 132 r2310 76a5c3a
Encoding settings : cabac=1 / ref=4 / deblock=1:-2:-2 / analyse=0x3:0x113 / me=umh / subme=10 / psy=1 / psy_rd=1.00:0.15 / mixed_ref=1 / me_range=16 / chroma_me=1 / trellis=2 / 8x8dct=1 / cqm=0 / deadzone=21,11 / fast_pskip=0 / chroma_qp_offset=-3 / threads=3 / lookahead_threads=1 / sliced_threads=0 / nr=0 / decimate=0 / interlaced=0 / bluray_compat=0 / constrained_intra=0 / bframes=6 / b_pyramid=2 / b_adapt=2 / b_bias=0 / direct=3 / weightb=1 / open_gop=0 / weightp=2 / keyint=240 / keyint_min=24 / scenecut=40 / intra_refresh=0 / rc_lookahead=60 / rc=2pass / mbtree=0 / bitrate=10900 / ratetol=1.0 / qcomp=0.65 / qpmin=0 / qpmax=69 / qpstep=4 / cplxblur=20.0 / qblur=0.5 / vbv_maxrate=40000 / vbv_bufsize=30000 / nal_hrd=none / ip_ratio=1.40 / pb_ratio=1.30 / aq=1:0.80
Language : French
Default : Yes
Forced : No

Audio #1
ID : 2
Format : AC-3
Format/Info : Audio Coding 3
Mode extension : CM (complete main)
Codec ID : A_AC3
Duration : 1h 34mn
Bit rate mode : Constant
Bit rate : 640 Kbps
Channel(s) : 6 channels
Channel positions : Front: L C R, Side: L R, LFE
Sampling rate : 48.0 KHz
Bit depth : 16 bits
Compression mode : Lossy
Stream size : 434 MiB (5%)
Title : AC3 / 5.1 ch / 640 kbps / Русский дубляж, BD RUS
Language : Russian
Default : Yes
Forced : No

Audio #2
ID : 3
Format : AC-3
Format/Info : Audio Coding 3
Mode extension : CM (complete main)
Codec ID : A_AC3
Duration : 1h 34mn
Bit rate mode : Constant
Bit rate : 640 Kbps
Channel(s) : 6 channels
Channel positions : Front: L C R, Side: L R, LFE
Sampling rate : 48.0 KHz
Bit depth : 16 bits
Compression mode : Lossy
Stream size : 434 MiB (5%)
Title : AC3 / 5.1 ch / 640 kbps / Французский original, BD RUS
Language : French
Default : No
Forced : No

Menu
00:00:00.000 : :Chapter 01
00:00:26.500 : :Chapter 02
00:09:16.333 : :Chapter 03
00:18:54.416 : :Chapter 04
00:30:37.458 : :Chapter 05
00:44:17.083 : :Chapter 06
00:52:09.125 : :Chapter 07
01:04:39.916 : :Chapter 08
01:22:16.708 : :Chapter 09

]
Свернуть

Скриншоты
Изображение
Изображение
Изображение
Свернуть
Не в сети
Профиль  
 Добавлено: 2013-06-19 20:02 (спустя 2 часа 27 минут)
Модератор
Аватара пользователя
Стаж: 8 лет 1 месяц
Сообщений: 1991
Спасибок: 129863
Лайков: 20
coldun
Качество: HQRip-AVC
Размер: 8.05 GB
Неужели за столько времени нельзя научиться правильно ставить формат и помещать релиз в нужный раздел? Посоветуйтесь с модератором, если не знаете, перед этим.
_________________
Себе ты можешь не качать, но раздавать другим обязан!
Не в сети
Профиль  
 Добавлено: 2013-06-20 18:59 (спустя 22 часа)
Аватара пользователя
Стаж: 6 лет 3 месяца
Сообщений: 26
Хрень полная..)))
Не в сети
Профиль  
Начать новую темуОтветить на тему  [ Сообщений: 3 ] 
Вы не можете начинать темы
Вы не можете отвечать на сообщения
Вы не можете редактировать свои сообщения
Вы не можете удалять свои сообщения