Правила форума

  • В этом разделе создание новых тем Запрещено.
  • Для создания новых тем пользуйтесь Корневым разделом DVD и HD фильмы.
Начать новую темуОтветить на тему  [ Сообщений: 5 ] 
Торрент файл
Размер: 4.21 GB • Зарегистрирован: 2 года 2 месяца • Статус: T Временный релиз
Скачан: 122 раза • Желающих скачать: 0 • Поблагодарили: 38 раз
 Раздают: 0  |  0 KB/s  ]   Качают: 0  |  0 KB/s  ] 
 Полного источника не было 49 минут 
Сообщения
 Добавлено: 2014-10-05 08:12
RG-ELEKTRO
Аватара пользователя
Стаж: 2 года 3 месяца
Сообщений: 7928
Спасибок: 53778
Лайков: 3304
Сигнал / The Signal


Изображение

Выпущено: США / Automatik Entertainment, Low Spark Films
Год выхода: 2014
Жанр: фантастика, триллер
Продолжительность: 01:37:11
Озвучивание: Авторский (одноголосый, закадровый) - Ю.Немахов

Режиссер: Уильям Юбэнк

В ролях: Лоренс Фишбёрн, Патрик Дэвидсон, Брентон Туэйтс, Оливия Кук, Бо Напп, Джеффри Гроувер, Рой Кенни, Тимоти Холмс, Рикардо Кампос, Дрю Сайкес

О фильме: История о трёх студентах, которые стали целью некоего соревнования хакеров. Ребят обманом заставляют совершить путешествие до заброшенной хижины, расположившейся аккурат посреди пустыни...


Формат: MKV
Качество: BDRip 720p
Видео: MPEG-4 AVC, 1280х534 (2.40:1), 4918 Кбит/сек, 23.976 кадра/сек
Аудио 1: AC3, 6 каналов, 640 Кбит/сек | Русский
Аудио 2: AC3, 6 каналов, 640 Кбит/сек | Английский
Субтитры: Английские
"Media Info"
Общее
Уникальный идентификатор : 230890962488579567143058696649538489054 (0xADB3FB5AD14561A996C1DCDB297B4ADE)
Полное имя : The Signal. (2014) BDRip 720p.mkv
Формат : Matroska
Версия формата : Version 2
Размер файла : 4,21 Гбайт
Продолжительность : 1 ч. 37 м.
Общий поток : 6197 Кбит/сек
Название фильма : The Signal. 2014
Дата кодирования : UTC 2014-10-04 18:09:00
Программа кодирования : mkvmerge v5.8.0 ('No Sleep / Pillow') built on Sep 2 2012 15:37:04
Библиотека кодирования : libebml v1.2.3 + libmatroska v1.3.0

Видео
Идентификатор : 1
Формат : AVC
Формат/Информация : Advanced Video Codec
Профиль формата : High@L4.1
Параметр CABAC формата : Да
Параметр ReFrames формата : 11 кадров
Идентификатор кодека : V_MPEG4/ISO/AVC
Продолжительность : 1 ч. 37 м.
Битрейт : 4918 Кбит/сек
Ширина : 1280 пикселей
Высота : 534 пикселя
Соотношение сторон : 2,40:1
Режим частоты кадров : Постоянный
Частота кадров : 23,976 кадра/сек
Цветовое пространство : YUV
Субдискретизация насыщенности : 4:2:0
Битовая глубина : 8 бит
Тип развёртки : Прогрессивная
Бит/(Пиксели*Кадры) : 0.300
Размер потока : 3,25 Гбайт (77%)
Заголовок : CHD
Библиотека кодирования : x264 core 142 r2431 ac76440
Настройки программы : cabac=1 / ref=11 / deblock=1:-3:-3 / analyse=0x3:0x113 / me=umh / subme=10 / psy=1 / psy_rd=1.00:0.05 / mixed_ref=1 / me_range=32 / chroma_me=1 / trellis=2 / 8x8dct=1 / cqm=0 / deadzone=21,11 / fast_pskip=0 / chroma_qp_offset=-2 / threads=18 / lookahead_threads=1 / sliced_threads=0 / nr=0 / decimate=1 / interlaced=0 / bluray_compat=0 / constrained_intra=0 / bframes=4 / b_pyramid=2 / b_adapt=2 / b_bias=0 / direct=3 / weightb=1 / open_gop=0 / weightp=2 / keyint=250 / keyint_min=23 / scenecut=40 / intra_refresh=0 / rc=2pass / mbtree=0 / bitrate=4918 / ratetol=1.0 / qcomp=0.70 / qpmin=0 / qpmax=69 / qpstep=4 / cplxblur=20.0 / qblur=0.5 / ip_ratio=1.40 / pb_ratio=1.30 / aq=2:0.90
Язык : English
Default : Да
Forced : Нет

Аудио #1
Идентификатор : 2
Формат : AC-3
Формат/Информация : Audio Coding 3
Расширение режима : CM (complete main)
Параметр Endianness формата : Big
Идентификатор кодека : A_AC3
Продолжительность : 1 ч. 37 м.
Вид битрейта : Постоянный
Битрейт : 640 Кбит/сек
Каналы : 6 каналов
Расположение каналов : Front: L C R, Side: L R, LFE
Частота : 48,0 КГц
Битовая глубина : 16 бит
Метод сжатия : С потерями
Размер потока : 445 Мбайт (10%)
Заголовок : A | Ю.Немахов
Язык : Russian
Default : Да
Forced : Нет

Аудио #2
Идентификатор : 3
Формат : AC-3
Формат/Информация : Audio Coding 3
Расширение режима : CM (complete main)
Параметр Endianness формата : Big
Идентификатор кодека : A_AC3
Продолжительность : 1 ч. 37 м.
Вид битрейта : Постоянный
Битрейт : 640 Кбит/сек
Каналы : 6 каналов
Расположение каналов : Front: L C R, Side: L R, LFE
Частота : 48,0 КГц
Битовая глубина : 16 бит
Метод сжатия : С потерями
Размер потока : 445 Мбайт (10%)
Заголовок : Original
Язык : English
Default : Нет
Forced : Нет

Текст
Идентификатор : 4
Формат : UTF-8
Идентификатор кодека : S_TEXT/UTF8
Идентификатор кодека/Информация : UTF-8 Plain Text
Заголовок : Full
Язык : English
Default : Нет
Forced : Нет

Меню
00:00:00.000 : en:00:00:00.000
00:04:26.099 : en:00:04:26.099
00:08:29.592 : en:00:08:29.592
00:12:52.605 : en:00:12:52.605
00:17:20.957 : en:00:17:20.957
00:23:18.355 : en:00:23:18.355
00:27:36.530 : en:00:27:36.530
00:33:47.776 : en:00:33:47.776
00:38:41.819 : en:00:38:41.819
00:42:48.816 : en:00:42:48.816
00:46:52.852 : en:00:46:52.852
00:51:03.477 : en:00:51:03.477
00:56:00.899 : en:00:56:00.899
01:01:50.206 : en:01:01:50.206
01:05:25.380 : en:01:05:25.380
01:12:40.231 : en:01:12:40.231
01:16:38.344 : en:01:16:38.344
01:23:49.191 : en:01:23:49.191
01:30:09.904 : en:01:30:09.904
01:33:01.159 : en:01:33:01.159
Свернуть
"Скриншоты"
Изображение
Изображение
Изображение


Свернуть

_________________
Не ищите меня в "ВКонтакте", в "Одноклассниках" меня нет - я на трекерах сижу!
Не в сети
Профиль  
 Добавлено: 2014-10-13 21:25 (спустя 8 дней)
Аватара пользователя
Стаж: 6 лет 9 месяцев
Возраст: 30
Сообщений: 90
Лайков: 6
фильм класс!
Не в сети
Профиль  
 Добавлено: 2014-10-14 07:16 (спустя 9 часов)
RG-ELEKTRO
Аватара пользователя
Стаж: 2 года 3 месяца
Сообщений: 7928
Спасибок: 53778
Лайков: 3304

Mahaon_ultra:

фильм класс!
в точку :co_ol:
_________________
Не ищите меня в "ВКонтакте", в "Одноклассниках" меня нет - я на трекерах сижу!
Не в сети
Профиль  
 Добавлено: 2014-10-16 09:20 (спустя 2 дня 2 часа)
Аватара пользователя
Стаж: 7 лет 11 месяцев
Возраст: 34
Сообщений: 116
Лайков: 6
Ага достоин канала ТВ3!
Не в сети
Профиль  
 Добавлено: 2014-10-16 12:13 (спустя 2 часа 53 минуты)
RG-ELEKTRO
Аватара пользователя
Стаж: 2 года 3 месяца
Сообщений: 7928
Спасибок: 53778
Лайков: 3304
dusha82
чудесный канал :hi_hi_hi:
_________________
Не ищите меня в "ВКонтакте", в "Одноклассниках" меня нет - я на трекерах сижу!
Не в сети
Профиль  
Начать новую темуОтветить на тему  [ Сообщений: 5 ] 
Вы не можете начинать темы
Вы не можете отвечать на сообщения
Вы не можете редактировать свои сообщения
Вы не можете удалять свои сообщения