Правила форума

  • В этом разделе создание новых тем Запрещено.
  • Для создания новых тем пользуйтесь Корневым разделом DVD и HD фильмы.
Начать новую темуОтветить на тему  [ Сообщений: 6 ] 
Торрент файл
Размер: 9.91 GB • Зарегистрирован: 3 года 10 месяцев • Статус: Проверено
Скачан: 179 раз • Желающих скачать: 0 • Поблагодарили: 65 раз
 Раздают: 0  |  0 KB/s  ]   Качают: 0  |  0 KB/s  ] 
 Полного источника не было 1 день 23 часа 
Сообщения
 Добавлено: 2013-01-27 04:15
Аватара пользователя
Стаж: 9 лет 1 месяц
Сообщений: 8018
Спасибок: 122272
Лайков: 1194
Синистер / Sinister

«Увидевший его не спасётся.»

Изображение


Год выпуска: 2012
Страна: Изображение США
Жанр: ужасы, триллер, детектив
Продолжительность: 01:49:45
Субтитры: Русские, английские
Перевод: Профессиональный (полное дублирование)[Лицензия]


Режиссёр: Скотт Дерриксон
Сценарист: Скотт Дерриксон, С. Роберт Каргилл
Продюсер: Джейсон Блум, Брайан Кэвэна-Джонс, Жанетт Брилл
Оператор: Крис Норр
Композитор: Кристофер Янг

В ролях: Итан Хоук, Джульет Райлэнс, Фред Долтон Томпсон, Джеймс Рэнсон, Майкл Холл Д’Аддарио, Клер Фоли, Роб Райли, Тэвис Смайли, Джанет Заппала, Виктория Ли

Описание: Вместе с семьей автор детективов поселяется в небольшом городке, в доме, где почти год назад развернулась леденящая душу трагедия — были убиты все жильцы. Писатель случайно находит видеозаписи, которые являются ключом к тайне преступления. Но ничто не дается даром: в доме начинают происходить жуткие вещи и теперь под угрозой жизнь его близких. Они столкнулись с чем-то, от чего нет спасения…

Изображение Изображение

Качество: BDRip (1080p)
Формат: Matroska
Видео: MPEG-4 AVC, 11500 Кбит/с, 1920x800, 23.976 Кадр/с
Аудио №1: Русский (АС3, 6 ch, 448 Кбит/с)
Аудио №2: Английский (DTS, 6 ch, 755 Кбит/с)

MediaInfo
Общее
Уникальный идентификатор : 172352171192052306316171645490189922571 (0x81A9D21C88AE1DE481FDD0DC24C1710B)
Полное имя : H:\Sinister.2012.1080p.BluRay.DTS.x264.nntt.org.mkv
Формат : Matroska
Версия формата : Version 2
Размер файла : 9,91 Гбайт
Продолжительность : 1 ч. 49 м.
Общий поток : 12,9 Мбит/сек
Название фильма : -Talian-
Дата кодирования : UTC 2013-01-30 11:01:41
Программа кодирования : mkvmerge v5.7.0 ('The Whirlwind') built on Jul 8 2012 20:08:51
Библиотека кодирования : libebml v1.2.3 + libmatroska v1.3.0

Видео
Идентификатор : 1
Формат : AVC
Формат/Информация : Advanced Video Codec
Профиль формата : High@L4.1
Параметр CABAC формата : Да
Параметр ReFrames формата : 9 кадров
Идентификатор кодека : V_MPEG4/ISO/AVC
Продолжительность : 1 ч. 49 м.
Битрейт : 11,4 Мбит/сек
Ширина : 1920 пикселей
Высота : 800 пикселей
Соотношение сторон : 2,40:1
Режим частоты кадров : Постоянный
Частота кадров : 23,976 кадра/сек
Цветовое пространство : YUV
Субдискретизация насыщенности : 4:2:0
Битовая глубина : 8 бит
Тип развёртки : Прогрессивная
Бит/(Пиксели*Кадры) : 0.311
Размер потока : 8,78 Гбайт (89%)
Заголовок : DON
Библиотека кодирования : x264 core 129 r2245kMod bc13772
Настройки программы : cabac=1 / ref=9 / deblock=1:-3:-3 / analyse=0x3:0x113 / me=umh / subme=9 / psy=1 / fade_compensate=0.00 / psy_rd=1.05:0.00 / mixed_ref=1 / me_range=16 / chroma_me=1 / trellis=2 / 8x8dct=1 / cqm=0 / deadzone=21,11 / fast_pskip=0 / chroma_qp_offset=-2 / threads=6 / lookahead_threads=1 / sliced_threads=0 / nr=0 / decimate=0 / interlaced=0 / bluray_compat=0 / constrained_intra=0 / bframes=8 / b_pyramid=2 / b_adapt=2 / b_bias=0 / direct=3 / weightb=1 / open_gop=0 / weightp=2 / keyint=250 / keyint_min=23 / scenecut=40 / intra_refresh=0 / rc=crf / mbtree=0 / crf=18.0000 / qcomp=0.65 / qpmin=0 / qpmax=69 / qpstep=4 / ip_ratio=1.30 / pb_ratio=1.20 / aq=1:0.90
Язык : English
Default : Нет
Forced : Нет

Аудио #1
Идентификатор : 2
Формат : AC-3
Формат/Информация : Audio Coding 3
Расширение режима : CM (complete main)
Параметр Endianness формата : Big
Идентификатор кодека : A_AC3
Продолжительность : 1 ч. 49 м.
Вид битрейта : Постоянный
Битрейт : 448 Кбит/сек
Каналы : 6 каналов
Расположение каналов : Front: L C R, Side: L R, LFE
Частота : 48,0 КГц
Битовая глубина : 16 бит
Метод сжатия : С потерями
Размер потока : 352 Мбайт (3%)
Заголовок : DUB-R5
Язык : Russian
Default : Да
Forced : Нет

Аудио #2
Идентификатор : 3
Формат : DTS
Формат/Информация : Digital Theater Systems
Режим : 16
Параметр Endianness формата : Big
Идентификатор кодека : A_DTS
Продолжительность : 1 ч. 49 м.
Вид битрейта : Постоянный
Битрейт : 768 Кбит/сек
Каналы : 6 каналов
Расположение каналов : Front: L C R, Side: L R, LFE
Частота : 48,0 КГц
Битовая глубина : 24 бит
Метод сжатия : С потерями
Размер потока : 603 Мбайт (6%)
Заголовок : Original
Язык : English
Default : Нет
Forced : Нет

Текст #1
Идентификатор : 4
Формат : UTF-8
Идентификатор кодека : S_TEXT/UTF8
Идентификатор кодека/Информация : UTF-8 Plain Text
Заголовок : Sub
Язык : Russian
Default : Нет
Forced : Нет

Текст #2
Идентификатор : 5
Формат : UTF-8
Идентификатор кодека : S_TEXT/UTF8
Идентификатор кодека/Информация : UTF-8 Plain Text
Заголовок : Sub
Язык : English
Default : Нет
Forced : Нет

Текст #3
Идентификатор : 6
Формат : UTF-8
Идентификатор кодека : S_TEXT/UTF8
Идентификатор кодека/Информация : UTF-8 Plain Text
Заголовок : Sub-SDH
Язык : English
Default : Нет
Forced : Нет

Меню
00:00:00.000 : en:00:00:00.000
00:10:47.605 : en:00:10:47.605
00:19:12.360 : en:00:19:12.360
00:27:15.217 : en:00:27:15.217
00:37:05.557 : en:00:37:05.557
00:46:42.383 : en:00:46:42.383
00:56:37.144 : en:00:56:37.144
01:07:20.411 : en:01:07:20.411
01:17:10.751 : en:01:17:10.751
01:26:22.803 : en:01:26:22.803
01:33:41.616 : en:01:33:41.616
01:43:15.147 : en:01:43:15.147
Свернуть
Скриншоты
Изображение
Изображение
Изображение
Изображение
Изображение
Свернуть


Последний раз редактировалось krazz 2013-01-31 00:39, всего редактировалось 2 раз(а).
Не в сети
Профиль  
 Добавлено: 2013-01-27 13:50 (спустя 9 часов)
Руководитель релиз-группы
Аватара пользователя
Стаж: 7 лет 5 месяцев
Возраст: 31
Сообщений: 3406
Спасибок: 46729
Лайков: 5
Сцена.
при появлении лучшего будет поглощен
Не в сети
Профиль  
 Добавлено: 2013-01-31 00:42 (спустя 3 дня)
Аватара пользователя
Стаж: 9 лет 1 месяц
Сообщений: 8018
Спасибок: 122272
Лайков: 1194
Торрент обновлен, сценрип заменен на рип с более качественным видеорядом.
Не в сети
Профиль  
 Добавлено: 2014-05-10 10:10 (спустя 1 год 3 месяца)
Аватара пользователя
Стаж: 5 лет 6 месяцев
Возраст: 23
Сообщений: 484
Спасибок: 1403
Лайков: 1
встаньте на раздачу :)
Не в сети
Профиль  
 Добавлено: 2014-05-28 16:44 (спустя 18 дней)
Стаж: 8 лет 2 месяца
Сообщений: 11
Спасибок: 24
Отличный фильм!!!
Не в сети
Профиль  
 Добавлено: 2014-06-08 20:01 (спустя 11 дней)
Стаж: 8 лет 3 месяца
Сообщений: 34
Встаньте на раздачу.
Не в сети
Профиль  
Начать новую темуОтветить на тему  [ Сообщений: 6 ] 
Вы не можете начинать темы
Вы не можете отвечать на сообщения
Вы не можете редактировать свои сообщения
Вы не можете удалять свои сообщения