Правила форума

  • В этом разделе создание новых тем Запрещено.
  • Для создания новых тем пользуйтесь Корневым разделом DVD и HD фильмы.
Начать новую темуОтветить на тему  [ 1 сообщение ] 
Торрент файл
Размер: 6.21 GB • Зарегистрирован: 1 год 3 месяца • Статус: Проверено
Скачан: 30 раз • Желающих скачать: 0 • Поблагодарили: 7 раз
 Раздают: 0  |  0 KB/s  ]   Качают: 0  |  0 KB/s  ] 
 Полного источника не было 16 часов 
Сообщения
 Добавлено: 2015-08-20 09:22
RG-ELEKTRO
Аватара пользователя
Стаж: 2 года 3 месяца
Сообщений: 7928
Спасибок: 53776
Лайков: 3304
Скандинавский форсаж / Børning


«Педаль до упора»

Изображение


Год выпуска: 2014
Страна: Норвегия (Filmkameratene A/S)
Жанр: Боевик, комедия
Продолжительность: 01:32:12
Перевод: Профессиональный (дубляж) (Лицензия) + Оригинальная звуковая дорожка
Субтитры: Английские, норвежские, датские, финские, шведские

Режиссёр: Хальвард Брейн
В ролях: Андерс Босмо Кристиансен, Тронд Хальбо, Ида Хьюсой, Дженни Скавлан, Отто Йесперсен, Оскар Люндвольд, Хенрик Местад
Описание: У Роя одна, но пламенная страсть – гонки. И как раз, когда он готовится к важному соревнованию, на горизонте появляется 14-летняя дочь, требующая к себе повышенного внимания. Увлекшись выяснением отношений с ребенком, Рой проигрывает заезд, и теперь у него только один шанс восстановить свою репутацию – участие в гонке «Северный Мыс». Кто первым доберется из Осло до самой северной точки Норвегии, тот и будет признан величайшим гонщиком всех времен и народов…
Изображение Изображение
Качество: BDRip 1080p
Формат: MKV
Видео кодек: MPEG-4 AVC
Аудио кодек: AC3
Видео: MPEG-4 AVC, 8322 Кбит/с, 1920x804
Аудио #1: AC3, 6 ch, 384 Кбит/с [Профессиональный (дубляж)]
Аудио #2: Hорвежский (AC3, 6 ch, 640 Кбит/c) [Оригинальная звуковая дорожка]
Субтитры: Английские, норвежские, датские, финские, шведские

"MI"
General
Unique ID : 245858293122073017524788932756817668202 (0xB8F695BAB1A630858FE18FC0B419686A)
Complete name : D:\фильмы\CafHd1HaBcK1y.F0rsazh.2014.D.BDRip.1080p.mkv
Format : Matroska
Format version : Version 4 / Version 2
File size : 6.21 GiB
Duration : 1h 33mn
Overall bit rate : 9 536 Kbps
Encoded date : UTC 2015-08-19 18:37:08
Writing application : mkvmerge v6.5.0 ('Isn't she lovely') built on Oct 20 2013 12:50:05
Writing library : libebml v1.3.0 + libmatroska v1.4.1

Video
ID : 1
Format : AVC
Format/Info : Advanced Video Codec
Format profile : High@L4.1
Format settings, CABAC : Yes
Format settings, ReFrames : 5 frames
Codec ID : V_MPEG4/ISO/AVC
Duration : 1h 33mn
Bit rate : 8 322 Kbps
Width : 1 920 pixels
Height : 804 pixels
Display aspect ratio : 2.40:1
Frame rate mode : Constant
Frame rate : 24.000 fps
Color space : YUV
Chroma subsampling : 4:2:0
Bit depth : 8 bits
Scan type : Progressive
Bits/(Pixel*Frame) : 0.225
Stream size : 5.42 GiB (87%)
Writing library : x264 core 142 r2479 dd79a61
Encoding settings : cabac=1 / ref=5 / deblock=1:-3:-3 / analyse=0x3:0x133 / me=umh / subme=9 / psy=1 / psy_rd=1.10:0.10 / mixed_ref=1 / me_range=24 / chroma_me=1 / trellis=2 / 8x8dct=1 / cqm=0 / deadzone=21,11 / fast_pskip=1 / chroma_qp_offset=-3 / threads=12 / lookahead_threads=2 / sliced_threads=0 / nr=0 / decimate=1 / interlaced=0 / bluray_compat=0 / constrained_intra=0 / bframes=8 / b_pyramid=2 / b_adapt=2 / b_bias=0 / direct=3 / weightb=1 / open_gop=0 / weightp=2 / keyint=250 / keyint_min=24 / scenecut=40 / intra_refresh=0 / rc_lookahead=60 / rc=crf / mbtree=1 / crf=16.5 / qcomp=0.60 / qpmin=0 / qpmax=69 / qpstep=4 / ip_ratio=1.40 / aq=1:0.75
Language : English
Default : Yes
Forced : No

Audio #1
ID : 2
Format : AC-3
Format/Info : Audio Coding 3
Mode extension : CM (complete main)
Format settings, Endianness : Big
Codec ID : A_AC3
Duration : 1h 33mn
Bit rate mode : Constant
Bit rate : 384 Kbps
Channel(s) : 6 channels
Channel positions : Front: L C R, Side: L R, LFE
Sampling rate : 48.0 KHz
Bit depth : 16 bits
Compression mode : Lossy
Stream size : 256 MiB (4%)
Language : Russian
Default : Yes
Forced : No

Audio #2
ID : 3
Format : AC-3
Format/Info : Audio Coding 3
Mode extension : CM (complete main)
Format settings, Endianness : Big
Codec ID : A_AC3
Duration : 1h 33mn
Bit rate mode : Constant
Bit rate : 640 Kbps
Channel(s) : 6 channels
Channel positions : Front: L C R, Side: L R, LFE
Sampling rate : 48.0 KHz
Bit depth : 16 bits
Compression mode : Lossy
Stream size : 427 MiB (7%)
Language : Norwegian
Default : No
Forced : No

Text #1
ID : 4
Format : PGS
Muxing mode : zlib
Codec ID : S_HDMV/PGS
Codec ID/Info : The same subtitle format used on BDs/HD-DVDs
Language : English
Default : No
Forced : No

Text #2
ID : 5
Format : PGS
Muxing mode : zlib
Codec ID : S_HDMV/PGS
Codec ID/Info : The same subtitle format used on BDs/HD-DVDs
Language : Norwegian
Default : No
Forced : No

Text #3
ID : 6
Format : PGS
Muxing mode : zlib
Codec ID : S_HDMV/PGS
Codec ID/Info : The same subtitle format used on BDs/HD-DVDs
Language : Danish
Default : No
Forced : No

Text #4
ID : 7
Format : PGS
Muxing mode : zlib
Codec ID : S_HDMV/PGS
Codec ID/Info : The same subtitle format used on BDs/HD-DVDs
Language : Swedish
Default : No
Forced : No

Text #5
ID : 8
Format : PGS
Muxing mode : zlib
Codec ID : S_HDMV/PGS
Codec ID/Info : The same subtitle format used on BDs/HD-DVDs
Language : Finnish
Default : No
Forced : No

Menu
00:00:00.000 : en:00:00:00.000
00:04:47.000 : en:00:04:47.000
00:12:54.000 : en:00:12:54.000
00:20:37.333 : en:00:20:37.333
00:27:40.417 : en:00:27:40.417
00:32:04.125 : en:00:32:04.125
00:35:06.292 : en:00:35:06.292
00:41:29.042 : en:00:41:29.042
00:48:02.542 : en:00:48:02.542
00:53:48.292 : en:00:53:48.292
01:00:37.958 : en:01:00:37.958
01:06:21.958 : en:01:06:21.958
01:11:04.167 : en:01:11:04.167
01:14:43.625 : en:01:14:43.625
01:23:58.083 : en:01:23:58.083
01:29:22.708 : en:01:29:22.708

Свернуть

Скриншоты
Изображение
Изображение
Изображение
Свернуть
Изображение


Изображение Изображение
Не в сети
Профиль  
Начать новую темуОтветить на тему  [ 1 сообщение ] 
Вы не можете начинать темы
Вы не можете отвечать на сообщения
Вы не можете редактировать свои сообщения
Вы не можете удалять свои сообщения