Правила форума

  • В этом разделе создание новых тем Запрещено.
  • Для создания новых тем пользуйтесь Корневым разделом DVD и HD фильмы.
Начать новую темуОтветить на тему  [ Сообщений: 7 ] 
Торрент файл
Размер: 8.99 GB • Зарегистрирован: 5 лет 9 месяцев • Статус: Проверено
Скачан: 310 раз • Желающих скачать: 0 • Поблагодарили: 58 раз
 Раздают: 0  |  0 KB/s  ]   Качают: 1  |  0 KB/s  ] 
 Полного источника не было 3 дня 
Сообщения
 Добавлено: 2011-02-18 20:17
Модератор
Аватара пользователя
Стаж: 8 лет 1 месяц
Возраст: 20
Сообщений: 32130
Спасибок: 98571
Лайков: 80
Скайлайн / Skyline
«Не смотри вверх»

Изображение
Год выпуска: 2010
Страна: Изображение США
Жанр: фантастика, боевик, триллер
Продолжительность: 01:37:48
Перевод: Профессиональный (полное дублирование) [лицензия]

Режиссер: Колин Штраус / Colin Strause, Грег Штраус / Greg Strause
Сценарий: Джошуа Кордес / Joshua Cordes, Лайам О’Доннелл / Liam O'Donnell
Продюсер: Кристиан Джеймс Андресен / Kristian James Andresen, Грег Штраус / Greg Strause, Лайам О’Доннелл / Liam O'Donnell, Колин Штраус / Colin Strause, Такер Тули / Tucker Tooley
Оператор: Майкл Уотсон / Michael Watson
Композитор: Мэттью Марджесон / Matthew Margeson

В ролях: Эрик Бальфур (Jarrod), Скотти Томпсон (Elaine), Бриттани Дэниэл (Candice), Кристал Рид (Denise), Нил Хопкинс (Ray), Дэвид Зайас (Oliver), Дональд Фэйсон (Terry), Робин Гэммел (Walt), Таня Ньюболд (Jen), Дж. Пол Бомер (Colin), Фет Махатонгди (Airplane Mom / Bartender), Байрон Макинтайр (Limo Driver)
Дублёры: Илья Бледный (Jarrod), Ирина Киреева (Elaine), Татьяна Шитова (Candice), Михаил Георгиу (Oliver), Пётр Иващенко (Terry), Олег Форостенко (Walt)
Описание: После вечеринки компания друзей просыпается от того, что в окно ударяет яркий свет. Они видят, как людей на улице затягивает в столп света, и они поднимаются куда-то вверх. Вскоре после этого на планете начинается зачистка оставшихся людей. Выжившим предстоит бороться за жизнь с инопланетными тварями.

Релиз: Изображение Раздача: Изображение

Изображение
Изображение
Доп. информация
Бюджет: $10 000 000
Сборы в мире: $65 070 978
Сборы в США: $21 393 620
Сборы в России: $9 357 796
Мировая премьера: 11 ноября 2010
Изображение Релиз на DVD: 9 декабря 2010, «CP-Digital»
Изображение Релиз на Blu-ray: 17 февраля 2011, «CP-Digital»
MediaInfo
General
Complete name                    : DEOSS77 | Skajlajn.2010.D.BDRip.1080p.NNTT.k236
Format                           : Matroska
File size                        : 8.99 GiB
Duration                         : 1h 37mn
Overall bit rate                 : 13.2 Mbps
Encoded date                     : UTC 2011-02-18 13:43:18
Writing application              : mkvmerge v3.4.0 ('Rapunzel') сборка от May 15 2010 09:38:20
Writing library                  : libebml v0.8.0 + libmatroska v0.9.0

Video
ID                               : 1
Format                           : AVC
Format/Info                      : Advanced Video Codec
Format profile                   : High@L4.1
Format settings, CABAC           : Yes
Format settings, ReFrames        : 5 frames
Muxing mode                      : Container profile=Unknown@4.1
Codec ID                         : V_MPEG4/ISO/AVC
Duration                         : 1h 37mn
Bit rate                         : 9 873 Kbps
Nominal bit rate                 : 10.7 Mbps
Width                            : 1 920 pixels
Height                           : 800 pixels
Display aspect ratio             : 2.40:1
Frame rate                       : 23.976 fps
Color space                      : YUV
Chroma subsampling               : 4:2:0
Bit depth                        : 8 bits
Scan type                        : Progressive
Bits/(Pixel*Frame)               : 0.268
Stream size                      : 6.74 GiB (75%)
Writing library                  : x264 core 112 r1867 22bfd31
Encoding settings                : cabac=1 / ref=5 / deblock=1:-3:-3 / analyse=0x3:0x133 / me=umh / subme=10 / psy=1 / psy_rd=1.05:0.10 / mixed_ref=1 / me_range=32 / chroma_me=1 / trellis=2 / 8x8dct=1 / cqm=0 / deadzone=21,11 / fast_pskip=1 / chroma_qp_offset=-3 / threads=6 / sliced_threads=0 / nr=0 / decimate=1 / interlaced=0 / constrained_intra=0 / bframes=6 / b_pyramid=2 / b_adapt=2 / b_bias=0 / direct=3 / weightb=1 / open_gop=0 / weightp=2 / keyint=250 / keyint_min=23 / scenecut=40 / intra_refresh=0 / rc_lookahead=40 / rc=2pass / mbtree=1 / bitrate=10715 / ratetol=1.0 / qcomp=0.60 / qpmin=10 / qpmax=51 / qpstep=4 / cplxblur=20.0 / qblur=0.5 / vbv_maxrate=50000 / vbv_bufsize=62500 / nal_hrd=none / ip_ratio=1.40 / aq=1:1.00

Audio #1
ID                               : 2
Format                           : DTS
Format/Info                      : Digital Theater Systems
Codec ID                         : A_DTS
Duration                         : 1h 37mn
Bit rate mode                    : Constant
Bit rate                         : 1 510 Kbps
Channel(s)                       : 6 channels
Channel positions                : Front: L C R, Side: L R, LFE
Sampling rate                    : 48.0 KHz
Bit depth                        : 24 bits
Stream size                      : 1.03 GiB (11%)
Language                         : Russian

Audio #2
ID                               : 3
Format                           : DTS
Format/Info                      : Digital Theater Systems
Codec ID                         : A_DTS
Duration                         : 1h 37mn
Bit rate mode                    : Constant
Bit rate                         : 1 510 Kbps
Channel(s)                       : 6 channels
Channel positions                : Front: L C R, Side: L R, LFE
Sampling rate                    : 48.0 KHz
Bit depth                        : 24 bits
Stream size                      : 1.03 GiB (11%)
Language                         : English

Text
ID                               : 4
Format                           : UTF-8
Codec ID                         : S_TEXT/UTF8
Codec ID/Info                    : UTF-8 Plain Text
Language                         : Russian
Свернуть
Свернуть

MPAA: Изображение
Качество: BDRip 1080p R5
Формат: MPEG-PS
Видео: 10.7 mb/s, 1920x800, 23.976 fps
Аудио: Изображение Russian / Изображение English: DTS, 1510 kb/s (6 ch)
Субтитры: Изображение Russian

Скриншоты
Изображение
Изображение
Изображение
Свернуть
Не в сети
Профиль  
 Добавлено: 2012-09-07 18:54 (спустя 1 год 6 месяцев)
Аватара пользователя
Стаж: 7 лет 8 месяцев
Возраст: 35
Сообщений: 45
КРУТОЙ ФИЛЬМ!!
Не в сети
Профиль  
 Добавлено: 2013-03-29 11:54 (спустя 6 месяцев)
Стаж: 5 лет
Сообщений: 2
Скорости дайте!!
Не в сети
Профиль  
 Добавлено: 2013-07-19 15:53 (спустя 3 месяца 21 день)
Стаж: 3 года 10 месяцев
Сообщений: 1
скорости плз
Не в сети
Профиль  
 Добавлено: 2015-01-17 20:13 (спустя 1 год 5 месяцев)
Стаж: 2 года 6 месяцев
Сообщений: 6
дай скорости
Не в сети
Профиль  
 Добавлено: 2015-01-29 17:59 (спустя 11 дней)
Аватара пользователя
Стаж: 7 лет 11 месяцев
Сообщений: 19
Странно, что рейтинг такой низкий...фильм действительно замечательный!
Не в сети
Профиль  
 Добавлено: 2015-01-29 18:01 (спустя 1 минута)
Аватара пользователя
Стаж: 8 лет 7 месяцев
Сообщений: 268
Спасибок: 23
Лайков: 9
замечательный? да вы что, сбрендели что-ли?)
Не в сети
Профиль  
Начать новую темуОтветить на тему  [ Сообщений: 7 ] 
Вы не можете начинать темы
Вы не можете отвечать на сообщения
Вы не можете редактировать свои сообщения
Вы не можете удалять свои сообщения