Правила форума

  • В этом разделе создание новых тем Запрещено.
  • Для создания новых тем пользуйтесь Корневым разделом DVD и HD фильмы.
Начать новую темуОтветить на тему  [ 1 сообщение ] 
Торрент файл
Размер: 8.85 GB • Зарегистрирован: 4 года 10 месяцев • Статус: Проверено
Скачан: 111 раз • Желающих скачать: 0 • Поблагодарили: 23 раза
 Раздают: 0  |  0 KB/s  ]   Качают: 0  |  0 KB/s  ] 
 Полного источника не было 3 года 2 месяца 
Сообщения
 Добавлено: 2012-01-05 15:15
Модератор релиз-группы
Аватара пользователя
Стаж: 9 лет 1 месяц
Возраст: 97
Сообщений: 11659
Спасибок: 6530
Лайков: 269
Сколько у тебя? / What's Your Number?

«У Элли было двадцать...»

Изображение

Год выпуска: 2011
Страна: США
Жанр: мелодрама, комедия
Продолжительность: 01:46:14
Перевод: Профессиональный (полное дублирование)

В ролях: Анна Фэрис, Крис Эванс, Эри Грейнор, Блайт Даннер, Эд Бегли мл., Оливер Джексон-Коэн, Хезер Бёрнс, Элиза Куп, Кейт Симсес, Тика Самптер
Дублёры: Татьяна Шитова, Александр Гаврилин, Никита Прозоровский, Даниил Эльдаров, Пётр Иващенко

Режиссер: Марк Майлод

Описание: Элли Дарлинг отправляется на поиски лучшего бывшего бойфренда в своей жизни, и это путешествие представляется ей абсолютно необходимым, после того, как она прочитала в журнале статью, предупреждающую о том, что люди, у которых в жизни было более 20 романов, упустили шанс найти свою настоящую любовь.
Элли - настоящая современная героиня. Она умная, привлекательная, забавная и романтичная - девушка, которая пытается понять, кто она на самом деле и с кем ей следует связать свою жизнь. Хотя к поиску бывшего лучшего кавалера ее подстегнула статья в журнале, это означает нечто более важное: у Элли наступил в жизни такой момент, когда она оказалась без мужа, без работы, и ее жизнь совсем не такая, о которой она мечтала. Она оказалась на перепутье, и это заставляет ее задуматься о том, что за последнее десятилетие она могла пропустить что-то, или кого-то, очень значимого в своей жизни.
Изображение
Качество: BDRip
Формат: Matroska
Видео: AVC; 1920x1080 ; 11384 kbps; 23,976 fps; High Profile 4.0
Аудио: Russian; DTS; 755 Kbps; 6 channels; 24 bit
Cубтитры: Русские
скриншоты
Изображение

Изображение

Изображение

Изображение
Свернуть
Mi
Format : Matroska
Format version : Version 2
File size : 8.85 GiB
Duration : 1h 46mn
Overall bit rate mode : Variable
Overall bit rate : 11.9 Mbps
Encoded date : UTC 2012-01-05 12:03:54
Writing application : mkvmerge v5.2.1 ('A Far Off Place') built on Jan 2 2012 23:21:10
Writing library : libebml v1.2.3 + libmatroska v1.3.0

Video
ID : 1
Format : AVC
Format/Info : Advanced Video Codec
Format profile : High@L4.0
Format settings, CABAC : Yes
Format settings, ReFrames : 3 frames
Codec ID : V_MPEG4/ISO/AVC
Duration : 1h 46mn
Bit rate mode : Variable
Bit rate : 11.4 Mbps
Maximum bit rate : 20.0 Mbps
Width : 1 920 pixels
Height : 1 080 pixels
Display aspect ratio : 16:9
Frame rate : 23.976 fps
Color space : YUV
Chroma subsampling : 4:2:0
Bit depth : 8 bits
Scan type : Progressive
Bits/(Pixel*Frame) : 0.229
Stream size : 8.12 GiB (92%)
Writing library : x264 core 93 r1542M 5b86182
Encoding settings : cabac=1 / ref=4 / deblock=1:0:0 / analyse=0x3:0x12 / me=hex / subme=2 / psy=1 / psy_rd=0.00:0.00 / mixed_ref=0 / me_range=16 / chroma_me=1 / trellis=0 / 8x8dct=1 / cqm=0 / deadzone=21,11 / fast_pskip=1 / chroma_qp_offset=0 / threads=3 / sliced_threads=0 / nr=0 / decimate=1 / interlaced=0 / constrained_intra=0 / bframes=3 / b_pyramid=1 / b_adapt=1 / b_bias=0 / direct=1 / wpredb=1 / wpredp=0 / keyint=48 / keyint_min=8 / scenecut=40 / intra_refresh=0 / rc_lookahead=48 / rc=abr / mbtree=0 / bitrate=11384 / ratetol=1.0 / qcomp=0.50 / qpmin=10 / qpmax=51 / qpstep=4 / vbv_maxrate=20000 / vbv_bufsize=25000 / ip_ratio=1.10 / pb_ratio=1.10 / aq=1:1.00 / nal_hrd=vbr
Language : English
Default : Yes
Forced : No

Audio
ID : 2
Format : DTS
Format/Info : Digital Theater Systems
Codec ID : A_DTS
Duration : 1h 46mn
Bit rate mode : Constant
Bit rate : 755 Kbps
Channel(s) : 6 channels
Channel positions : Front: L C R, Side: L R, LFE
Sampling rate : 48.0 KHz
Bit depth : 24 bits
Compression mode : Lossy
Stream size : 573 MiB (6%)
Language : Russian
Default : Yes
Forced : No

Text
ID : 3
Format : PGS
Muxing mode : zlib
Codec ID : S_HDMV/PGS
Codec ID/Info : The same subtitle format used on BDs/HD-DVDs
Language : Russian
Default : Yes
Forced : No


Свернуть
_________________
Изображение
Не в сети
Профиль  
Начать новую темуОтветить на тему  [ 1 сообщение ] 
Вы не можете начинать темы
Вы не можете отвечать на сообщения
Вы не можете редактировать свои сообщения
Вы не можете удалять свои сообщения