Правила форума

  • В этом разделе создание новых тем Запрещено.
  • Для создания новых тем пользуйтесь Корневым разделом DVD и HD фильмы.
Начать новую темуОтветить на тему  [ Сообщений: 2 ] 
Торрент файл
Размер: 3.06 GB • Зарегистрирован: 1 год • Статус: T Временный релиз
Скачан: 244 раза • Желающих скачать: 0 • Поблагодарили: 45 раз
 Раздают: 2  |  0 KB/s  ]   Качают: 0  |  0 KB/s  ] 
Сообщения
 Добавлено: 2015-11-13 16:23
DVD Release Group
Аватара пользователя
Стаж: 7 лет 1 месяц
Сообщений: 3569
Спасибок: 247659
Лайков: 1020
Скорость: Автобус 657

Heist


Изображение


Год выпуска: 2015
Страна: США
Жанр: Боевик, триллер
Продолжительность: 01:32:34
Перевод: Профессиональный (полное дублирование)
Субтитры: Английские
Режиссер: Скотт Манн
В ролях: Джеффри Дин Морган, Роберт Де Ниро, Кейт Босворт, Дэйв Батиста, Джина Карано, Марк-Пол Госселаар, Моррис Честнат, Д.Б. Суини, Саммер Элтис, Лидия Халл
Описание: Все знают, что обокрасть Фрэнка Поупа, владельца казино и босса мафии — это самоубийство. Но однажды некогда преданный ему крупье решается вынести из кассы казино несколько миллионов долларов. Все было продумано, но план не сработал. Скрываясь с места преступления, грабители захватывают автобус, полный заложников. На бешеной скорости автобус мчится к мексиканской границе. Топливо на пределе. На хвосте — мафия и полиция. И, кажется, выхода нет…
Изображение
Sample:
http://sendfile.su/1175335
Качество: WEB-DL 720p
Формат: MKV
Видео кодек: H.264
Аудио кодек: AC3
Видео: 1280x528 23.98fps 3871kbps
Аудио:
Аудио Rus: 48kHz 6ch 384kbps
Аудио Eng: 48kHz 6ch 384kbps
"MediaInfo"
Формат : Matroska
Версия формата : Version 4 / Version 2
Размер файла : 2,94 Гбайт
Продолжительность : 1 ч. 32 м.
Общий поток : 4542 Кбит/сек
Дата кодирования : UTC 2015-11-13 12:05:06
Программа кодирования : mkvmerge v8.2.0 ('World of Adventure') 64bit
Библиотека кодирования : libebml v1.3.1 + libmatroska v1.4.2
DURATION : 01:32:26.560000000
NUMBER_OF_FRAMES : 173330
NUMBER_OF_BYTES : 133117440
_STATISTICS_WRITING_APP : mkvmerge v8.2.0 ('World of Adventure') 64bit
_STATISTICS_WRITING_DATE_UTC : 2015-11-13 12:05:06
_STATISTICS_TAGS : BPS DURATION NUMBER_OF_FRAMES NUMBER_OF_BYTES

Видео
Идентификатор : 1
Формат : AVC
Формат/Информация : Advanced Video Codec
Профиль формата : Main@L3.1
Параметр CABAC формата : Нет
Параметр ReFrames формата : 2 кадра
Идентификатор кодека : V_MPEG4/ISO/AVC
Продолжительность : 1 ч. 32 м.
Битрейт : 3871 Кбит/сек
Ширина : 1280 пикселей
Высота : 528 пикселей
Соотношение сторон : 2,40:1
Режим частоты кадров : Постоянный
Частота кадров : 23,976 кадра/сек
Цветовое пространство : YUV
Субдискретизация насыщенности : 4:2:0
Битовая глубина : 8 бит
Тип развёртки : Прогрессивная
Бит/(Пиксели*Кадры) : 0.239
Размер потока : 2,51 Гбайт (85%)
Язык : English
Default : Да
Forced : Нет
Основные цвета : BT.709
Характеристики трансфера : BT.709
Коэффициенты матрицы : BT.709

Аудио #1
Идентификатор : 2
Формат : AC-3
Формат/Информация : Audio Coding 3
Расширение режима : CM (complete main)
Параметр Endianness формата : Big
Идентификатор кодека : A_AC3
Продолжительность : 1 ч. 32 м.
Вид битрейта : Постоянный
Битрейт : 384 Кбит/сек
Каналы : 6 каналов
Расположение каналов : Front: L C R, Side: L R, LFE
Частота : 48,0 КГц
Битовая глубина : 16 бит
Метод сжатия : С потерями
Размер потока : 254 Мбайт (8%)
Язык : Russian
Default : Да
Forced : Да

Аудио #2
Идентификатор : 3
Формат : AC-3
Формат/Информация : Audio Coding 3
Расширение режима : CM (complete main)
Параметр Endianness формата : Big
Идентификатор кодека : A_AC3
Продолжительность : 1 ч. 32 м.
Вид битрейта : Постоянный
Битрейт : 384 Кбит/сек
Каналы : 6 каналов
Расположение каналов : Front: L C R, Side: L R, LFE
Частота : 48,0 КГц
Битовая глубина : 16 бит
Метод сжатия : С потерями
Размер потока : 254 Мбайт (8%)
Язык : English
Default : Нет
Forced : Нет

Текст
Идентификатор : 4
Формат : UTF-8
Идентификатор кодека : S_TEXT/UTF8
Идентификатор кодека/Информация : UTF-8 Plain Text
Язык : English
Default : Нет
Forced : Нет

Меню
00:00:00.000 : en:1
00:02:51.000 : en:2
00:12:43.000 : en:3
00:23:18.000 : en:4
00:34:36.000 : en:5
00:44:47.000 : en:6
00:55:00.000 : en:7
01:05:01.000 : en:8
01:15:31.000 : en:9
01:27:10.000 : en:10
Свернуть

"Скриншоты"
Изображение
Изображение
Изображение
Свернуть


Последний раз редактировалось rastor 2015-11-20 04:24, всего редактировалось 1 раз.
Не в сети
Профиль  
 Добавлено: 2015-11-15 03:59 (спустя 1 день 11 часов)
Аватара пользователя
Стаж: 6 лет 6 месяцев
Сообщений: 19961
Спасибок: 721
Лайков: 461
1080 буит?
_________________
It was I'am ... :jn_pu_sk:
Медали и Ордена
ИзображениеИзображение
Свернуть
Не в сети
Профиль  
Начать новую темуОтветить на тему  [ Сообщений: 2 ] 
Вы не можете начинать темы
Вы не можете отвечать на сообщения
Вы не можете редактировать свои сообщения
Вы не можете удалять свои сообщения