Правила форума

  • В этом разделе создание новых тем Запрещено.
  • Для создания новых тем пользуйтесь Корневым разделом DVD и HD фильмы.
Начать новую темуОтветить на тему  [ 1 сообщение ] 
Торрент файл
Размер: 13.31 GB • Зарегистрирован: 5 лет 9 месяцев • Статус: Проверено
Скачан: 42 раза • Желающих скачать: 0 • Поблагодарили: 14 раз
 Раздают: 0  |  0 KB/s  ]   Качают: 0  |  0 KB/s  ] 
 Полного источника не было 3 месяца 9 дней 
Сообщения
 Добавлено: 2011-02-28 13:21
Top-releaser
Аватара пользователя
Стаж: 6 лет 11 месяцев
Возраст: 45
Сообщений: 299
Спасибок: 4106
Лайков: 3
Скорость / Speed
«Get ready for rush hour.»

Изображение

Год выпуска: 1994
Страна: США
Жанр: боевик, триллер, драма, криминал
Продолжительность: 01:55:53
Перевод: Профессиональный (многоголосый, закадровый) х 2

Режиссер: Ян де Бонт / Jan de Bont
Сценарий: Грэм Йост / Graham Yost
Продюсер: Марк Гордон / Mark Gordon, Йен Брюс / Ian Bryce, Эллисон Лион Сеган / Allison Lyon Segan
Оператор: Анджей Бартковяк / Andrzej Bartkowiak
Композитор: Марк Манчина / Mark Mancina

В ролях: Киану Ривз (Officer Jack Traven), Сандра Буллок (Annie Porter,), Деннис Хоппер (Howard Payne), Джо Мортон (Capt. McMahon), Джефф Дэниелс (Det. Harold Harry Temple), Алан Рак (Stephens), Гленн Пламмер (Jaguar Owner), Ричард Лайнбэк (Norwood), Бет Грант (Helen), Хоторн Джеймс (Sam), Карлос Карраско (Ortiz), Дэвид Кригел (Terry)
Описание: Представьте себе девушку, у которой на заднем стекле автомобиля красуется наклейка с восклицательным знаком, чайником и странного вида туфлей с подписью «уважай меня». Теперь представьте эту девушку за рулем гигантского американского автобуса, несущегося по городу на огромной скорости в час пик. Выглядит это довольно забавно, если не знать, что автобус заминирован и может взорваться, если стрелка спидометра опустится ниже восьмидесяти километров в час.
Пассажиры в панике, события разворачивается с бешеной скоростью, а времени до взрыва остается все меньше. На поиски таинственного террориста, который уже доказал серьезность своих намерений, взорвав переполненный людьми лифт, брошены элитные подразделения полиции. Но время идет, а выйти на след преступника так и не удается. В противоборство с террористом вступает лучший боец спецназа Джек Трейвен. Теперь от того, сможет ли он верно распорядиться оставшимися секундами, зависят жизни десятков людей.

Изображение
Бюджет: $30 000 000
Сборы в США: $121 248 145
Сборы в мире: $350 448 145
Мировая премьера: 10 июня 1994
Изображение

MPAA: Изображение - Лицам до 17 лет обязательно присутствие взрослого
Качество: BDRip, 1080p
Формат: Matroska
Видео: AVC; 1920x816 (2.35:1); 13328 Kbps; 23,976 fps; 0,355 bpp
Аудио №1: Russian; AC3; 48 KHz; 448 Kbps; CBR; 6 ch; [Профессиональный (многоголосый, закадровый, 20 Век ФОКС СНГ)]
Аудио №2: Russian; AC3; 48 KHz; 448 Kbps; CBR; 6 ch; [Профессиональный (многоголосый, закадровый, Киномания)]
Аудио №3: English; DTS; 48 KHz; 1509 Kbps; CBR; 6 ch; 24 bit; [Original]
Аудио №4: English; AC3; 48 KHz; 192 Kbps; CBR; 2 ch; [комментарии режиссёра]
Аудио №5: English; AC3; 48 KHz; 192 Kbps; CBR; 2 ch; [комметарии продюссера и сценариста]
Субтитры: Русские (Лицензия, 20th Century Fox), Русские (русские для слабо слышащих), Русские (субтитры.ру).

Раздача группы:Изображение

"MediaInfo"

Общее
Уникальный идентификатор : 252314306434931343980140241529162523862 (0xBDD1F7C2CAA2D76D9750C43DE6AD64D6)
Полное имя : Скорость (Speed)[1994, BDRip, 1080p].mkv
Формат : Matroska
Размер файла : 13,3 Гбайт
Продолжительность : 1 ч. 55 м.
Общий поток : 16,4 Мбит/сек
Название фильма : -Jackal-[torrents.ru]thx.to.DON[please.keep.it.original]
Дата кодирования : UTC 2009-04-29 18:56:50
Программа кодирования : mkvmerge v2.7.0 ('Do It Again') built on Apr 15 2009 00:27:10
Библиотека кодирования : libebml v0.7.7 + libmatroska v0.8.1

Видео
Идентификатор : 1
Формат : AVC
Формат/Информация : Advanced Video Codec
Профиль формата : High@L4.1
Параметр CABAC формата : Да
Параметр ReFrames формата : 4 кадры
Идентификатор кодека : V_MPEG4/ISO/AVC
Продолжительность : 1 ч. 55 м.
Битрейт : 13,7 Мбит/сек
Ширина : 1920 пикс.
Высота : 816 пикс.
Соотношение сторон : 2,35:1
Частота кадров : 23,976 кадр/сек
Цветовое пространство : YUV
Подвыборка цветности : 4:2:0
Битовая глубина : 8 бит
Тип развёртки : Прогрессивная
Бит/(Пиксели*Кадры) : 0.363
Размер потока : 10,8 Гбайт (81%)
Заголовок : DON, keep it original
Библиотека кодирования : x264 core 67 r1143M 7554705
Настройки программы : cabac=1 / ref=4 / deblock=1:-3:-3 / analyse=0x3:0x133 / me=umh / subme=9 / psy_rd=1.0:0.0 / mixed_ref=1 / me_range=32 / chroma_me=1 / trellis=2 / 8x8dct=1 / cqm=2 / deadzone=21,11 / chroma_qp_offset=-2 / threads=12 / nr=0 / decimate=0 / mbaff=0 / bframes=6 / b_pyramid=1 / b_adapt=2 / b_bias=0 / direct=3 / wpredb=1 / keyint=250 / keyint_min=25 / scenecut=40 / rc=2pass / bitrate=13654 / ratetol=1.0 / qcomp=0.60 / qpmin=10 / qpmax=51 / qpstep=4 / cplxblur=20.0 / qblur=0.5 / ip_ratio=1.40 / pb_ratio=1.30 / aq=1:1.00
Язык : English

Аудио #1
Идентификатор : 2
Формат : AC-3
Формат/Информация : Audio Coding 3
Расширение режима : CM (complete main)
Идентификатор кодека : A_AC3
Продолжительность : 1 ч. 55 м.
Вид битрейта : Постоянный
Битрейт : 448 Кбит/сек
Канал(ы) : 6 канала(ов)
Расположение каналов : Front: L C R, Side: L R, LFE
Частота : 48,0 КГц
Битовая глубина : 16 бит
Метод сжатия : С потерями
Размер потока : 371 Мбайт (3%)
Заголовок : AC3 5.1, 448 kbps (20 Век ФОКС СНГ)
Язык : Russian

Аудио #2
Идентификатор : 3
Формат : AC-3
Формат/Информация : Audio Coding 3
Расширение режима : CM (complete main)
Идентификатор кодека : A_AC3
Продолжительность : 1 ч. 55 м.
Вид битрейта : Постоянный
Битрейт : 448 Кбит/сек
Канал(ы) : 6 канала(ов)
Расположение каналов : Front: L C R, Side: L R, LFE
Частота : 48,0 КГц
Битовая глубина : 16 бит
Метод сжатия : С потерями
Размер потока : 371 Мбайт (3%)
Заголовок : AC3 5.1, 448 kbps (Киномания)
Язык : Russian

Аудио #3
Идентификатор : 4
Формат : DTS
Формат/Информация : Digital Theater Systems
Идентификатор кодека : A_DTS
Продолжительность : 1 ч. 55 м.
Вид битрейта : Постоянный
Битрейт : 1510 Кбит/сек
Канал(ы) : 6 канала(ов)
Расположение каналов : Front: L C R, Side: L R, LFE
Частота : 48,0 КГц
Битовая глубина : 24 бит
Метод сжатия : С потерями
Размер потока : 1,22 Гбайт (9%)
Заголовок : DTS @ 1.5 Mbps
Язык : English

Аудио #4
Идентификатор : 5
Формат : AC-3
Формат/Информация : Audio Coding 3
Профиль формата : Dolby Digital
Расширение режима : CM (complete main)
Идентификатор кодека : A_AC3
Продолжительность : 1 ч. 55 м.
Вид битрейта : Постоянный
Битрейт : 192 Кбит/сек
Канал(ы) : 2 канала(ов)
Расположение каналов : Front: L R
Частота : 48,0 КГц
Битовая глубина : 16 бит
Метод сжатия : С потерями
Размер потока : 159 Мбайт (1%)
Заголовок : AC3 2.0, 192 kbps (комментарии режиссёра)
Язык : English

Аудио #5
Идентификатор : 6
Формат : AC-3
Формат/Информация : Audio Coding 3
Профиль формата : Dolby Digital
Расширение режима : CM (complete main)
Идентификатор кодека : A_AC3
Продолжительность : 1 ч. 55 м.
Вид битрейта : Постоянный
Битрейт : 192 Кбит/сек
Канал(ы) : 2 канала(ов)
Расположение каналов : Front: L R
Частота : 48,0 КГц
Битовая глубина : 16 бит
Метод сжатия : С потерями
Размер потока : 159 Мбайт (1%)
Заголовок : AC3 2.0, 192 kbps (комметарии продюссера и сценариста)
Язык : English

Текст #1
Идентификатор : 7
Формат : UTF-8
Идентификатор кодека : S_TEXT/UTF8
Идентификатор кодека/Информация : UTF-8 Plain Text
Заголовок : 20 Век ФОКС СНГ
Язык : Russian

Текст #2
Идентификатор : 8
Формат : UTF-8
Идентификатор кодека : S_TEXT/UTF8
Идентификатор кодека/Информация : UTF-8 Plain Text
Заголовок : русские для слабо слышащих
Язык : Russian

Текст #3
Идентификатор : 9
Формат : UTF-8
Идентификатор кодека : S_TEXT/UTF8
Идентификатор кодека/Информация : UTF-8 Plain Text
Заголовок : субтитры.ру
Язык : Russian

Меню
00:00:00.000 : en:00:00:00.000
00:04:18.550 : en:00:04:18.550
00:06:03.321 : en:00:06:03.321
00:08:26.089 : en:00:08:26.089
00:11:16.885 : en:00:11:16.885
00:15:22.713 : en:00:15:22.713
00:17:37.223 : en:00:17:37.223
00:23:20.816 : en:00:23:20.816
00:26:42.768 : en:00:26:42.768
00:31:00.776 : en:00:31:00.776
00:35:04.519 : en:00:35:04.519
00:40:25.131 : en:00:40:25.131
00:44:34.630 : en:00:44:34.630
00:48:45.506 : en:00:48:45.506
00:53:08.185 : en:00:53:08.185
00:55:46.593 : en:00:55:46.593
00:58:50.819 : en:00:58:50.819
01:02:18.443 : en:01:02:18.443
01:07:37.387 : en:01:07:37.387
01:08:53.546 : en:01:08:53.546
01:11:50.514 : en:01:11:50.514
01:15:15.845 : en:01:15:15.845
01:15:39.535 : en:01:15:39.535
01:19:32.518 : en:01:19:32.518
01:23:26.585 : en:01:23:26.585
01:27:03.635 : en:01:27:03.635
01:32:56.195 : en:01:32:56.195
01:37:05.027 : en:01:37:05.027
01:40:27.229 : en:01:40:27.229
01:42:18.883 : en:01:42:18.883
01:46:04.775 : en:01:46:04.775
01:50:05.265 : en:01:50:05.265
Свернуть
"Скриншоты"

Изображение
Изображение
Изображение
Изображение
Изображение
Изображение
Изображение
Изображение
Изображение
Свернуть
"Знаете ли Вы, что..."
  • Роль Джека предлагали Стивену Болдуину, Уильяму Болдуину, Джонни Деппу, Брюсу Уиллису, Тому Крузу, Джеффу Бриджесу и Тому Хэнксу, но все они от неё отказались.
  • От постановки картины отказались Ренни Харлин и Квентин Тарантино.
  • В списке Американского киноинститута «100 самых захватывающих фильмов» картина заняла 99-е место.
  • Несмотря на то, что «Скорость» - фильм-катастрофа, в нём погибают только семь человек.
  • В сцене, где поезд-метро сходит с рельс, использовалась его миниатюрная модель.
  • Во время съёмок Киану Ривз случайно разбил стекло автобусной двери, но в итоге этот эпизод решили сохранить.
  • На съёмках было использовано 13 автобусов, два из которых взорвали.
Свернуть
Не в сети
Профиль  
Начать новую темуОтветить на тему  [ 1 сообщение ] 
Вы не можете начинать темы
Вы не можете отвечать на сообщения
Вы не можете редактировать свои сообщения
Вы не можете удалять свои сообщения