Правила форума

  • В этом разделе создание новых тем Запрещено.
  • Для создания новых тем пользуйтесь Корневым разделом DVD и HD фильмы.
Начать новую темуОтветить на тему  [ Сообщений: 3 ] 
Торрент файл
Размер: 6.95 GB • Зарегистрирован: 5 лет • Статус: Проверено
Скачан: 16 раз • Желающих скачать: 0 • Поблагодарили: 5 раз
 Раздают: 0  |  0 KB/s  ]   Качают: 0  |  0 KB/s  ] 
 Полного источника не было 3 года 2 месяца 
Сообщения
 Добавлено: 2011-11-04 17:18
Модератор релиз-группы
Аватара пользователя
Стаж: 9 лет 1 месяц
Возраст: 97
Сообщений: 11659
Спасибок: 6530
Лайков: 269
Первая часть
Скуби-Ду 2: Монстры на свободе / Scooby Doo 2: Monsters Unleashed

Изображение


Страна: США
Жанр: Фэнтези, комедия, приключения
Продолжительность: 1 ч. 32 м.
Год выпуска: 2004
Перевод: Профессиональный (дублированный)
Профессиональный (многоголосый закадровый)
Оригинальная звуковая дорожка

Режиссёр: Раджа Госнелл / Raja Gosnell

В ролях: Фредди Принц мл., Сара Мишель Геллар, Мэттью Лиллард, Линда Карделлини, Сет Грин, Питер Бойл, Тим Блейк Нельсон, Алисия Сильверстоун, Нил Фаннинг, Пэт О'Брайэн

Описание: На этот раз Скуби-Ду и его приятелям предстоит сразиться с замаскированным злодеем, который замышляет захватить город Кулсвиль, наводнив его привидениями.

Эти существа, появляющиеся на свет благодаря специальной машине по генерированию монстров, должны устроить в городке настоящий переполох. Но благодаря усилиям «Тайной корпорации» Кулсвиль будет непременно спасен!

Изображение

Качество: BDRip 1080p
Формат: MKV
Видео: AVC, 1920x1080 (16/9), 23.976 fps, 8 585 Kbps (0.168 bit/pixel)
Аудио 1: AC-3, 48.0 KHz, 6 ch, 448 Kbps, CBR (Русский дублированный)
Аудио 2: AC-3, 48.0 KHz, 2 ch, 192 Kbps, CBR (Русский многоголосый закадровый)
Аудио 3: DTS, 48.0 KHz, 6 ch, 1 510 Kbps, CBR (English)
Субтитры: English, Spanish

Mi
Format : Matroska
Format version : Version 2
File size : 6.95 GiB
Duration : 1h 32mn
Overall bit rate mode : Variable
Overall bit rate : 10.7 Mbps
Movie name : sem-scoobytwo1080p
Encoded date : UTC 2011-11-03 12:08:30
Writing application : mkvmerge v2.9.7 ('Tenderness') built on Jul 1 2009 18:43:35
Writing library : libebml v0.7.7 + libmatroska v0.8.1

Video
ID : 1
Format : AVC
Format/Info : Advanced Video Codec
Format profile : High@L4.1
Format settings, CABAC : Yes
Format settings, ReFrames : 4 frames
Codec ID : V_MPEG4/ISO/AVC
Duration : 1h 32mn
Bit rate mode : Variable
Bit rate : 8 585 Kbps
Maximum bit rate : 25.0 Mbps
Width : 1 920 pixels
Height : 1 080 pixels
Display aspect ratio : 16:9
Frame rate : 23.976 fps
Color space : YUV
Chroma subsampling : 4:2:0
Bit depth : 8 bits
Scan type : Progressive
Bits/(Pixel*Frame) : 0.173
Stream size : 5.42 GiB (78%)
Writing library : x264 core 116 r2019 9cc407d
Encoding settings : cabac=1 / ref=4 / deblock=1:0:0 / analyse=0x3:0x133 / me=umh / subme=7 / psy=1 / psy_rd=1.00:0.00 / mixed_ref=1 / me_range=16 / chroma_me=1 / trellis=1 / 8x8dct=1 / cqm=0 / deadzone=21,11 / fast_pskip=1 / chroma_qp_offset=-2 / threads=6 / sliced_threads=0 / nr=0 / decimate=1 / interlaced=0 / bluray_compat=0 / constrained_intra=0 / bframes=4 / b_pyramid=0 / b_adapt=1 / b_bias=0 / direct=1 / weightb=1 / open_gop=0 / weightp=2 / keyint=240 / keyint_min=24 / scenecut=40 / intra_refresh=0 / rc_lookahead=40 / rc=2pass / mbtree=1 / bitrate=8585 / ratetol=1.0 / qcomp=0.60 / qpmin=0 / qpmax=69 / qpstep=4 / cplxblur=20.0 / qblur=0.5 / vbv_maxrate=25000 / vbv_bufsize=25000 / nal_hrd=vbr / ip_ratio=1.40 / aq=1:1.00
Language : English

Audio #1
ID : 2
Format : AC-3
Format/Info : Audio Coding 3
Mode extension : CM (complete main)
Codec ID : A_AC3
Duration : 1h 32mn
Bit rate mode : Constant
Bit rate : 448 Kbps
Channel(s) : 6 channels
Channel positions : Front: L C R, Side: L R, LFE
Sampling rate : 48.0 KHz
Bit depth : 16 bits
Compression mode : Lossy
Stream size : 297 MiB (4%)
Title : Дубляж
Language : Russian

Audio #2
ID : 3
Format : AC-3
Format/Info : Audio Coding 3
Mode extension : CM (complete main)
Codec ID : A_AC3
Duration : 1h 32mn
Bit rate mode : Constant
Bit rate : 192 Kbps
Channel(s) : 2 channels
Channel positions : Front: L R
Sampling rate : 48.0 KHz
Bit depth : 16 bits
Compression mode : Lossy
Stream size : 127 MiB (2%)
Title : Закадровый
Language : Russian

Audio #3
ID : 4
Format : DTS
Format/Info : Digital Theater Systems
Codec ID : A_DTS
Duration : 1h 32mn
Bit rate mode : Constant
Bit rate : 1 510 Kbps
Channel(s) : 6 channels
Channel positions : Front: L C R, Side: L R, LFE
Sampling rate : 48.0 KHz
Bit depth : 24 bits
Compression mode : Lossy
Stream size : 1 003 MiB (14%)
Title : Original
Language : English

Text #1
ID : 5
Format : UTF-8
Codec ID : S_TEXT/UTF8
Codec ID/Info : UTF-8 Plain Text
Title : Sub
Language : English

Text #2
ID : 6
Format : UTF-8
Codec ID : S_TEXT/UTF8
Codec ID/Info : UTF-8 Plain Text
Title : Sub
Language : Spanish

Свернуть
_________________
Изображение
Не в сети
Профиль  
 Добавлено: 2012-01-31 15:25 (спустя 2 месяца 26 дней)
Аватара пользователя
Стаж: 7 лет 6 месяцев
Сообщений: 14
Скорости плз)))))))))))))))))))
Не в сети
Профиль  
 Добавлено: 2013-07-13 15:01 (спустя 1 год 5 месяцев)
Аватара пользователя
Стаж: 4 года 5 месяцев
Возраст: 25
Сообщений: 61
Лайков: 2
встаньте пожалйста на раздачу)))за ранее спасибо)))
_________________
потапов
Не в сети
Профиль  
Начать новую темуОтветить на тему  [ Сообщений: 3 ] 
Вы не можете начинать темы
Вы не можете отвечать на сообщения
Вы не можете редактировать свои сообщения
Вы не можете удалять свои сообщения
cron