Правила форума

  • В этом разделе создание новых тем Запрещено.
  • Для создания новых тем пользуйтесь Корневым разделом DVD и HD фильмы.
Начать новую темуОтветить на тему  [ Сообщений: 3 ] 
Торрент файл
Размер: 4.63 GB • Зарегистрирован: 5 лет 4 месяца • Статус: Проверено
Скачан: 121 раз • Желающих скачать: 0 • Поблагодарили: 34 раза
 Раздают: 0  |  0 KB/s  ]   Качают: 0  |  0 KB/s  ] 
 Полного источника не было 2 месяца 16 дней 
Сообщения
 Добавлено: 2011-07-11 10:08
Аватара пользователя
Стаж: 7 лет 3 месяца
Сообщений: 12
Спасибок: 561
Сквозь горизонт / Event Horizon

Изображение


Год выпуска: 1997
Страна: США, Великобритания
Жанр: ужасы, фантастика, триллер, детектив, ...
Продолжительность: 1 ч.35 мин.
Перевод: Профессиональный (многоголосый закадровый)

Режиссёр: Пол У. С. Андерсон
В ролях: Лоренс Фишбёрн
Сэм Нил
Кэтлин Куинлен
Джоэли Ричардсон
Ричард Т. Джонс
Джек Ноузуорти
Джейсон Айзекс
Шон Пертуи
Питер Маринкер
Холли Чант
...
Описание: 2047 год. Спасательный космический корабль послан к границе Солнечной системы с целью выяснить, что произошло с экипажем первого звездолета, созданного для путешествий со сверхсветовой скоростью и бесследно исчезнувшего при первом же полете. Внезапно появившийся из ниоткуда, он был обнаружен возле далекой планеты Нептун.


Качество: HDTV
Формат: MKV
Видео кодек: H264 (AVC)
Аудио кодек: AC3 (Dolby Digital)
Видео: 5881 Кбит/сек,1280 х 544,AVC,23,976 кадр/сек (High@L4.1)
Аудио #1: Russian,384 Кбит/сек,48,0 КГц,16 бит,6 каналов
Аудио #2: English,640 Кбит/сек,48,0 КГц,16 бит, 6 каналов
Подробные тех.данные

Cкрытый текст
Общее
Уникальный идентификатор : 181515286924644172646300724441288111790 (0x888E9298E091BDDF9D97F653181976AE)
Полное имя : E:\раздача\Skvoz.gorizont.1997.x264.HDTV(720p).mkv
Формат : Matroska
Версия формата : Version 1
Размер файла : 4,63 Гбайт
Продолжительность : 1 ч. 35 м.
Общий поток : 6907 Кбит/сек
Дата кодирования : UTC 2008-12-26 14:29:26
Программа кодирования : mkvmerge v2.4.0 ('Fumbling Towards Ecstasy') built on Oct 11 2008 20:13:15
Библиотека кодирования : libebml v0.7.7 + libmatroska v0.8.1

Видео
Идентификатор : 1
Формат : AVC
Формат/Информация : Advanced Video Codec
Профиль формата : High@L4.1
Параметр CABAC формата : Да
Параметр ReFrames формата : 5 кадров
Идентификатор кодека : V_MPEG4/ISO/AVC
Продолжительность : 1 ч. 35 м.
Битрейт : 5881 Кбит/сек
Ширина : 1280 пикс.
Высота : 544 пикс.
Соотношение сторон : 2,35:1
Частота кадров : 23,976 кадр/сек
Цветовое пространство : YUV
Подвыборка цветности : 4:2:0
Битовая глубина : 8 бит
Тип развёртки : Прогрессивная
Бит/(Пиксели*Кадры) : 0.352
Размер потока : 3,85 Гбайт (83%)
Заголовок : ViDEO
Библиотека кодирования : x264 core 65 r1057M 5f8a149
Настройки программы : cabac=1 / ref=5 / deblock=1:0:0 / analyse=0x3:0x133 / me=umh / subme=7 / psy_rd=1.0:0.0 / mixed_ref=1 / me_range=16 / chroma_me=1 / trellis=1 / 8x8dct=1 / cqm=0 / deadzone=21,11 / chroma_qp_offset=-2 / threads=6 / nr=0 / decimate=1 / mbaff=0 / bframes=3 / b_pyramid=1 / b_adapt=1 / b_bias=0 / direct=1 / wpredb=1 / keyint=250 / keyint_min=25 / scenecut=40(pre) / rc=2pass / bitrate=5881 / ratetol=1.0 / qcomp=0.60 / qpmin=10 / qpmax=51 / qpstep=4 / cplxblur=20.0 / qblur=0.5 / ip_ratio=1.40 / pb_ratio=1.30 / aq=1:1.00
Язык : English

Аудио #1
Идентификатор : 2
Формат : AC-3
Формат/Информация : Audio Coding 3
Расширение режима : CM (complete main)
Идентификатор кодека : A_AC3
Продолжительность : 1 ч. 35 м.
Вид битрейта : Постоянный
Битрейт : 384 Кбит/сек
Каналы : 6 каналов
Расположение каналов : Front: L C R, Side: L R, LFE
Частота : 48,0 КГц
Битовая глубина : 16 бит
Метод сжатия : С потерями
Размер потока : 264 Мбайт (6%)
Заголовок : AC3 5.1 384 Kbps
Язык : Russian

Аудио #2
Идентификатор : 3
Формат : AC-3
Формат/Информация : Audio Coding 3
Расширение режима : CM (complete main)
Идентификатор кодека : A_AC3
Продолжительность : 1 ч. 35 м.
Вид битрейта : Постоянный
Битрейт : 640 Кбит/сек
Каналы : 6 каналов
Расположение каналов : Front: L C R, Side: L R, LFE
Частота : 48,0 КГц
Битовая глубина : 16 бит
Метод сжатия : С потерями
Размер потока : 439 Мбайт (9%)
Заголовок : AC3 5.1 640 Kbps
Язык : English

Текст #1
Идентификатор : 4
Формат : UTF-8
Идентификатор кодека : S_TEXT/UTF8
Идентификатор кодека/Информация : UTF-8 Plain Text
Язык : Russian

Текст #2
Идентификатор : 5
Формат : UTF-8
Идентификатор кодека : S_TEXT/UTF8
Идентификатор кодека/Информация : UTF-8 Plain Text
Язык : English
Свернуть
Скриншоты
Изображение
Изображение
Изображение
Изображение

Свернуть


Последний раз редактировалось юкисс2 2011-07-18 06:17, всего редактировалось 1 раз.
Не в сети
Профиль  
 Добавлено: 2011-07-18 07:11 (спустя 6 дней)
Аватара пользователя
Стаж: 8 лет 3 месяца
Возраст: 43
Сообщений: 3290
Спасибок: 21012
Лайков: 3
юкисс2
Внимание: Для DVD и HD-разделов необходимы развернутые технические данные:
Для DVD: Отчет DVDInfo (под спойлером)
Для HD: Отчет BDInfo→ (после нажатия кнопки «scan bitrates» и окончания сканирования) или MediaInfo→ ( весь текст из режима view (вид) → text (текст).) (под спойлером)
Для HD и HQRip-ов необходимы скриншоты в формате PNG, для остальных форматов PNG так же рекомендуется.
[Инструкция] Как сделать скриншоты с видео
[Инструкция] Куда и как залить скриншоты
исправьте пожалуйста
Как все исправите, то сообщите пожалуйста в ЛС мне или любому модератору видео. Обязательно со ссылкой на релиз :)
_________________
Изображение
Не в сети
Профиль  
 Добавлено: 2011-08-25 20:55 (спустя 1 месяц 7 дней)
Аватара пользователя
Стаж: 5 лет 9 месяцев
Возраст: 21
Сообщений: 37
фильм хороший, особенно демон, в которого превратился док :-P
Не в сети
Профиль  
Начать новую темуОтветить на тему  [ Сообщений: 3 ] 
Вы не можете начинать темы
Вы не можете отвечать на сообщения
Вы не можете редактировать свои сообщения
Вы не можете удалять свои сообщения