Правила форума

  • В этом разделе создание новых тем Запрещено.
  • Для создания новых тем пользуйтесь Корневым разделом DVD и HD фильмы.
Начать новую темуОтветить на тему  [ Сообщений: 2 ] 
Торрент файл
Размер: 14 GB • Зарегистрирован: 6 лет • Статус: Проверено
Скачан: 86 раз • Желающих скачать: 0 • Поблагодарили: 23 раза
 Раздают: 0  |  0 KB/s  ]   Качают: 0  |  0 KB/s  ] 
 Полного источника не было 9 дней 
Сообщения
 Добавлено: 2010-11-17 19:36
Инквизитор
Аватара пользователя
Стаж: 8 лет 8 месяцев
Сообщений: 3753
Спасибок: 28360
Лайков: 9
Славные парни
Goodfellas

«Тридцать лет из жизни мафии»

Изображение


Год выпуска: 1990
Страна: США (Warner Bros. Pictures Co)
Жанр: драма, криминал, биография, ...
Продолжительность: 02:25:27
Субтитры: Русские (отдельным файлом), Английские, Голандские
Перевод: Профессиональный (полное дублирование)

Режиссер: Мартин Скорсезе
Сценарий: Николас Пиледжи, Мартин Скорсезе
Продюсер: Барбара Де Фина, Брюс С. Пастин, Ирвин Уинклер
Оператор: Михаэль Балльхаус
Композитор: Джордж Харрисон, Мик Джаггер, Роберт А. Кинг, ...
Художник: Кристи Зиа, Ричард Бруно, Мехер Ахмад, ...
Монтаж: Джеймс Й. Куэй, Тельма Шунмейкер


В ролях: Роберт Де Ниро, Рэй Лиотта, Джо Пеши, Лоррейн Бракко, Пол Сорвино, Фрэнк Сиверо, Тони Дарроу, Майк Старр, Фрэнк Винсент, Деби Мейзар, Сэмюэл Л. Джексон

Описание: Генри Хилл — начинающий гангстер, занимающийся грабежами вместе с Джими Конвеем и Томми Де Вито, которые с легкостью убивают любого, кто встает у них на пути восхождения к вершинам Мафии. Приходит время когда Генри, сам пострадавший от своих напарников, должен приложить руку к началу конца Джимми и Томми…


MPAA Изображение
Kinopoisk Топ 250:98
IMDb Топ 250:15
бюджет............$25 000 000
сборы в США................$46 836 394
премьера (мир)..................12 сентября 1990
Награды и премии:

Премия Оскар, 1991 год (Лучшая мужская роль второго плана (Джо Пеши).Награда Британской академия, 1991 год (Лучший фильм, Лучший режиссер [Мартин Скорсезе], Лучший адаптированный сценарий, Лучшие костюмы, Лучший монтаж). Венецианский кинофестиваль, 1990 год (Серебряный лев за лучшую режиссерскую работу [Мартин Скорсезе])



Раздача группы: Изображение

Качество: BDRip
Формат: MKV
Видео кодек: H.264
Аудио кодек: AC3
Видео: MPEG-4 AVC, 11.4 Мбит/с, 1920x1080, 23.976 fps
Аудио:
  • Аудио 1: Русский (АС3, 6 ch, 384 Кбит/с, 48 KHz), Дубляж
  • Аудио 2: Русский (AC3, 6 ch, 448 Кбит/с, 48 KHz), Профессиональный двухголосый (Петр Гланц и Татьяна Казакова) - отдельным файлом
  • Аудио 3: Русский (AC3, 6 ch, 448 Кбит/с, 48 KHz), Авторский одноголосый (Алексей Михалев) - отдельным файлом
  • Аудио 4: Английский (AC3, 6 ch, 640 Кбит/с, 48 KHz) - отдельным файлом


MediaInfo
General
Полное имя : D:\Slavnye.parni.1990.x264.BDRip.1080p\Slavnye.parni.1990.x264.BDRip.1080p.mkv
Формат : Matroska
Размер файла : 12.4 GiB
Продолжительность : 2h 25mn
Общий поток : 12.2 Mbps
Дата кодирования : UTC 2008-10-31 16:26:36
Программа-кодировщик : mkvmerge v2.2.0 ('Turn It On Again') built on Mar 4 2008 12:58:26
Библиотека кодирования : libebml v0.7.7 + libmatroska v0.8.1
Video
Идентификатор : 1
Формат : AVC
Формат/Информация : Advanced Video Codec
Профайл формата : High@L4.1
Параметры CABAC формата : Yes
Параметры ReFrames формата : 4 frames
Режим смешивания : Container profile=Unknown@4.1
Идентификатор кодека : V_MPEG4/ISO/AVC
Продолжительность : 2h 25mn
Битрейт : 11.6 Mbps
Ширина : 1 920 pixels
Высота : 1 080 pixels
Соотношение кадра : 16/9
Частота кадров : 23.976 fps
Разрешение : 24 bits
Колориметрия : 4:2:0
Тип развёртки : Progressive
Бит/(Пиксели*Кадры) : 0.234
Размер потока : 11.8 GiB (95%)
Заголовок : x264 crf 11854 kb/s
Библиотека кодирования : x264 core 65 r998M 6768543
Настройки программы : cabac=1 / ref=4 / deblock=1:-2:-2 / analyse=0x3:0x113 / me=umh / subme=7 / psy_rd=1.0:0.0 / mixed_ref=1 / me_range=16 / chroma_me=1 / trellis=2 / 8x8dct=1 / cqm=0 / deadzone=21,11 / chroma_qp_offset=-2 / threads=6 / nr=0 / decimate=0 / mbaff=0 / bframes=3 / b_pyramid=1 / b_adapt=1 / b_bias=0 / direct=3 / wpredb=1 / keyint=250 / keyint_min=25 / scenecut=40(pre) / rc=crf / crf=22.0 / qcomp=0.60 / qpmin=10 / qpmax=51 / qpstep=4 / vbv_maxrate=38000 / vbv_bufsize=30000 / ip_ratio=1.40 / pb_ratio=1.30 / aq=1:1.00
Язык : English
Audio
Идентификатор : 2
Формат : AC-3
Формат/Информация : Audio Coding 3
Идентификатор кодека : A_AC3
Продолжительность : 2h 25mn
Вид битрейта : Constant
Битрейт : 384 Kbps
Канал(ы) : 6 channels
Расположение каналов : Front: L C R, Surround: L R, LFE
Частота : 48.0 KHz
Размер потока : 400 MiB (3%)
Заголовок : AC3 5.1 (384 kbps)
Язык : Russian
Text #1
Идентификатор : 3
Формат : UTF-8
Идентификатор кодека : S_TEXT/UTF8
Идентификатор кодека/Информация : UTF-8 Plain Text
Язык : Dutch
Text #2
Идентификатор : 4
Формат : UTF-8
Идентификатор кодека : S_TEXT/UTF8
Идентификатор кодека/Информация : UTF-8 Plain Text
Язык : English
Свернуть

Знаете ли вы, что...
* Данный фильм является экранизацией книги Николаса Пиледжи «Умник».
* Томми ДеВито убивает Билли Бэттса. Это уже второй раз в фильмах Скорсезе, когда герой Джо Пеши убивает героя Фрэнка Винсента; впервые это случилось в «Бешеном быке» (1980) – там Пеши избивает Винсента до полусмерти. Напротив, Винсент получил возможность отомстить в «Казино» (1995), где его герой убивает героя Пеши на кукурузном поле.
* В сцене, когда Сисеро навещает Генри в тюрьме, Пол Сорвино сымпровизировал пощечину своему партнеру; реакция Рэя Лиотта была искренней и неподдельной.
* В фильме в маленьких эпизодах появились отец и мать Мартина Скорсезе.
* Лиотта провел много времени в беседах со своим «героем» - Генри Хиллом. Позже в интервью Хилл рассказал, что многие гангстеры говорили ему, будто в фильме не его история, а их.
* Джимми Берк скончался в тюрьме в 1996 году. В фильме речь идет о том, что его досрочно могли отпустить только в 2004-м.
* Ходили устойчивые слухи, будто настоящий Джимми Конуэй (подлинное имя – Джимми Берк) был настолько в восторге от того, что его сыграет Де Ниро, что позвонил ему из тюрьмы и дал несколько ценных советов. Однако Николас Пиледжи всячески отрицает эти слухи, утверждая, что Конуэй и Де Ниро никогда не общались. Тем не менее, он не отказывается, что в проекте участвовали люди, знавшие настоящих главных героев довольно близко.
* Настоящий Хилл также говорил, что авторы фильма попали в образ реального Томми ДеВито практически на 99%, за одним лишь «но» - Томми был огромным, как шкаф, что очень контрастирует с маленьким ростом Джо Пеши.
* Настоящий Генри Хилл (Рэй Лиотта) в свое время переехал в Редмонд, где открыл итальянский ресторан. Однако после выхода фильма он вернулся. Одна из его дочерей появляется в сцене свадьбы.
* После того, как мать Джо Пеши посмотрела фильм, она позвонила сыну, сказала, что кино хорошее, но плохо, что он так часто ругается.
* Слово «fuck» в фильме использовано 246 раз; в большинстве случаев им пользуется герой Джо Пеши.
* Бестселлер Николаса Пиледжи назывался «Умники». Скорсезе тоже хотел это название, но в то же самое время популярностью пользовался одноименный криминальный сериал (1987-1990).
* Финальный выстрел Томми прямо в камеру считается своеобразной цитатой из «Большого ограбления поезда» (1903) Эдвина С. Портера, где уже после всего действия бандит в исполнении Джастуса Д. Бэрнса также стреляет из револьвера прямо в зрительный зал.
* По просьбе Скорсезе Джо Пеши сам придумал и снял сцену, где его герой Томми ДеВито выходит из себя под любимую фразу «Думаешь, я забавный?»
Свернуть

Скриншоты
Изображение
Изображение
Изображение
Изображение
Изображение
Изображение
Свернуть
Оформлено by reinwar


Последний раз редактировалось Биг 2014-01-11 11:25, всего редактировалось 1 раз.
 wowc4ik нравится это.
Не в сети
Профиль  
 Добавлено: 2012-03-14 19:17 (спустя 1 год 3 месяца)
Аватара пользователя
Стаж: 6 лет 11 месяцев
Сообщений: 18045
Спасибок: 6236
Лайков: 1
Никогда не забуду этот фильм :co_ol: ,спасибо :)


Тема поднималась пользователем Биг 2012-03-14 19:17.
Не в сети
Профиль  
Начать новую темуОтветить на тему  [ Сообщений: 2 ] 
Вы не можете начинать темы
Вы не можете отвечать на сообщения
Вы не можете редактировать свои сообщения
Вы не можете удалять свои сообщения