Правила форума

  • В этом разделе создание новых тем Запрещено.
  • Для создания новых тем пользуйтесь Корневым разделом DVD и HD фильмы.
Начать новую темуОтветить на тему  [ Сообщений: 2 ] 
Торрент файл
Размер: 4.54 GB • Зарегистрирован: 3 года 6 месяцев • Статус: Проверено
Скачан: 27 раз • Желающих скачать: 0 • Поблагодарили: 15 раз
 Раздают: 0  |  0 KB/s  ]   Качают: 0  |  0 KB/s  ] 
 Полного источника не было 2 года 10 месяцев 
Сообщения
 Добавлено: 2013-05-23 20:46
DVD Release Group
Аватара пользователя
Стаж: 7 лет 1 месяц
Сообщений: 3568
Спасибок: 247611
Лайков: 1020
Слепой

A l'aveugle


Изображение


Год выпуска: 2012
Страна: Франция
Жанр: Боевик, триллер
Продолжительность: 01:33:26
Перевод: Профессиональный (двухголосый)
Режиссер: Ксавьер Палю
В ролях: Жак Гамблен, Ламбер Вильсон, Рафаэль Агоге, Арно Коссон, Антуан Леваннье, Фридерик Контожом, Давид Капелле, Мари Винсент, Николас Грэндхомм, Натали Винье
Описание: Изувеченный труп молодой девушки найден у нее дома. Ни взлома, ни свидетелей, все выглядит идеальным преступлением. Расследование поручается капитану Лассаллю, опытному одинокому полицейскому, разбитому недавней смертью жены. Схожие по характеру жестокие убийства продолжают происходить, и в связи с ними Лассалля интригует личность слепого Нарвика. Но у него есть алиби, а его немощь, казалось бы, ограждает от подозрений. Странная дуэль наподобие игры в шахматы начинается между двумя людьми.
Изображение
Sample:
http://sendfile.su/815136
Дополнительно: Сохранены оригинальные чаптеры как на Blu-Ray
Качество: BDRip 720p
Формат: MKV
Видео кодек: H264
Аудио кодек: AC3, DTS
Видео: 1280x544 24fps 5190Kbps
Аудио:
Audio Rus: AC3 48kHz 6ch 256Kbps
Audio Fra: DTS 48kHz 6ch 1510Kbps
"MediaInfo"
Формат : Matroska
Версия формата : Version 2
Размер файла : 4,54 Гбайт
Продолжительность : 1 ч. 33 м.
Общий поток : 6957 Кбит/сек
Название фильма : Слепой
Дата кодирования : UTC 2013-05-23 14:06:45
Программа кодирования : mkvmerge v5.2.0 ('I can't explain') built on Dec 18 2011 18:12:03
Библиотека кодирования : libebml v1.2.3 + libmatroska v1.3.0

Видео
Идентификатор : 1
Формат : AVC
Формат/Информация : Advanced Video Codec
Профиль формата : High@L4.1
Параметр CABAC формата : Да
Параметр ReFrames формата : 5 кадров
Идентификатор кодека : V_MPEG4/ISO/AVC
Продолжительность : 1 ч. 33 м.
Битрейт : 5190 Кбит/сек
Ширина : 1280 пикселей
Высота : 544 пикселя
Соотношение сторон : 2,35:1
Частота кадров : 24,000 кадра/сек
Цветовое пространство : YUV
Субдискретизация насыщенности : 4:2:0
Битовая глубина : 8 бит
Тип развёртки : Прогрессивная
Бит/(Пиксели*Кадры) : 0.311
Размер потока : 3,30 Гбайт (73%)
Библиотека кодирования : x264 core 125 r2200 999b753
Настройки программы : cabac=1 / ref=5 / deblock=1:0:0 / analyse=0x3:0x113 / me=umh / subme=8 / psy=1 / psy_rd=1.00:0.00 / mixed_ref=1 / me_range=16 / chroma_me=1 / trellis=1 / 8x8dct=1 / cqm=0 / deadzone=21,11 / fast_pskip=1 / chroma_qp_offset=-2 / threads=12 / lookahead_threads=2 / sliced_threads=0 / nr=0 / decimate=1 / interlaced=0 / bluray_compat=0 / constrained_intra=0 / bframes=3 / b_pyramid=2 / b_adapt=2 / b_bias=0 / direct=3 / weightb=1 / open_gop=0 / weightp=2 / keyint=240 / keyint_min=24 / scenecut=40 / intra_refresh=0 / rc_lookahead=50 / rc=2pass / mbtree=1 / bitrate=5190 / ratetol=1.0 / qcomp=0.60 / qpmin=0 / qpmax=69 / qpstep=4 / cplxblur=20.0 / qblur=0.5 / ip_ratio=1.40 / aq=1:1.00
Язык : French
Default : Да
Forced : Да

Аудио #1
Идентификатор : 2
Формат : AC-3
Формат/Информация : Audio Coding 3
Расширение режима : CM (complete main)
Идентификатор кодека : A_AC3
Продолжительность : 1 ч. 33 м.
Вид битрейта : Постоянный
Битрейт : 256 Кбит/сек
Каналы : 6 каналов
Расположение каналов : Front: L C R, Side: L R, LFE
Частота : 48,0 КГц
Битовая глубина : 16 бит
Метод сжатия : С потерями
Размер потока : 171 Мбайт (4%)
Заголовок : DD 5.1 @ 256 kbps - MVO, R5
Язык : Russian
Default : Да
Forced : Да

Аудио #2
Идентификатор : 3
Формат : DTS
Формат/Информация : Digital Theater Systems
Идентификатор кодека : A_DTS
Продолжительность : 1 ч. 33 м.
Вид битрейта : Постоянный
Битрейт : 1510 Кбит/сек
Каналы : 6 каналов
Расположение каналов : Front: L C R, Side: L R, LFE
Частота : 48,0 КГц
Битовая глубина : 24 бит
Метод сжатия : С потерями
Размер потока : 1009 Мбайт (22%)
Заголовок : DTS 5.1 @ 1536 kbps
Язык : French
Default : Нет
Forced : Нет

Меню
00:00:00.000 : en:00:00:00.000
00:08:23.292 : en:00:08:23.292
00:18:43.792 : en:00:18:43.792
00:24:15.000 : en:00:24:15.000
00:33:08.458 : en:00:33:08.458
00:41:14.917 : en:00:41:14.917
00:46:13.625 : en:00:46:13.625
00:54:07.250 : en:00:54:07.250
01:00:26.792 : en:01:00:26.792
01:09:32.792 : en:01:09:32.792
01:16:38.792 : en:01:16:38.792
01:21:46.917 : en:01:21:46.917
Свернуть

"Скриншоты"
Изображение
Изображение
Изображение
Изображение
Свернуть

Раздача группы:
Изображение
В сети
Профиль  
 Добавлено: 2013-05-24 06:59 (спустя 10 часов)
Аватара пользователя
Стаж: 9 лет 1 месяц
Возраст: 31
Сообщений: 333
Спасибок: 1073
Лайков: 1
мен на постере похож на кристофера ламберта, чуть было не скачал)
Не в сети
Профиль  
Начать новую темуОтветить на тему  [ Сообщений: 2 ] 
Вы не можете начинать темы
Вы не можете отвечать на сообщения
Вы не можете редактировать свои сообщения
Вы не можете удалять свои сообщения