Правила форума

  • В этом разделе создание новых тем Запрещено.
  • Для создания новых тем пользуйтесь Корневым разделом DVD и HD фильмы.
Начать новую темуОтветить на тему  [ 1 сообщение ] 
Торрент файл
Размер: 16.19 GB • Зарегистрирован: 3 года 11 месяцев • Статус: Проверено
Скачан: 7 раз • Желающих скачать: 0 • Поблагодарили: 5 раз
 Раздают: 0  |  0 KB/s  ]   Качают: 0  |  0 KB/s  ] 
 Полного источника не было 3 года 
Сообщения
 Добавлено: 2013-01-04 17:05
Top-releaser
Аватара пользователя
Стаж: 6 лет 7 месяцев
Сообщений: 2078
Спасибок: 3230
Лайков: 9
Изображение

Сломанная стрела
Broken Arrow


Год выпуска: 1996
Страна: США
Слоган: «Prepare to Go Ballistic»
Жанр: боевик, триллер
Продолжительность: 01:48:21
Перевод: Профессиональный (многоголосый, закадровый)
Режиссер: Джон Ву
Сценарий: Грэм Йост
Продюсер: Билл Бадалато, Теренс Чанг, Джо Гарери, Кристофер Годсик, Марк Гордон
Оператор: Питер Леви
Композитор: Ханс Циммер
В ролях: Джон Траволта, Кристиан Слэйтер, Саманта Мэтис, Делрой Линдо, Боб Гантон, Фрэнк Уэйли
Бюджет: $65 000 000
Сборы в США: $70 770 147
Сборы в мире: $150 270 147
Мировая премьера: 9 февраля 1996
Релиз на DVD: 28 января 2010, «Двадцатый Век Фокс СНГ»
Описание: Джон Траволта и Кристиан Слэйтер играют двух пилотов-асов американских ВВС. Им поручается выполнить секретное задание на самолете-невидимке с двумя ядерными боеголовками на борту. Дикенс, неудачник по жизни, постоянно пропускающий повышения по службе, задумывает похитить боеголовки, с тем чтобы шантажировать правительство США.
Но его напарник Хэйл - честный парень и не позволит никому так просто взять и украсть собственность своей родной страны. Между ними разгорается самая настоящая война, в которой могут погибнуть не только они, но и несколько миллионов мирных жителей, живущих в округе, если хотя бы одна ядерная боеголовка взорвется.

Раздача группы: Изображение

Изображение User Rating: 6.815 (4246)
Изображение User Rating: 5.90 (54 922)
MPAA: R - Лицам до 17 лет обязательно присутствие взрослого
Качество: BD-Remux, 1080p
Формат: Matroska
Видео: MPEG-2 Video; 1920x1080 (16:9); 19946 Kbps; 23,976 fps; 0,401 bit/pixel
Аудио №1: English; AC3; 640 Kbps; CBR; 6 ch
Аудио №2: Russian; AC3; 384 Kbps; CBR; 6 ch


MediaInfo
Общее
Уникальный идентификатор : 204916705829913528700101497672951164552 (0x9A2985A0E4F0732F92AA664A1E386E88)
Полное имя : Z:\WWW\TR-Downloads\Broken arrow.1080p.[R.G.Daredevil].mkv
Формат : Matroska
Версия формата : Version 1
Размер файла : 16,2 Гбайт
Продолжительность : 1 ч. 48 м.
Режим общего битрейта : Переменный
Общий поток : 21,4 Мбит/сек
Дата кодирования : UTC 2008-04-02 01:33:08
Программа кодирования : mkvmerge v2.1.0 ('Another Place To Fall') built on Aug 19 2007 13:40:07
Библиотека кодирования : libebml v0.7.7 + libmatroska v0.8.1

Видео
Идентификатор : 1
Формат : MPEG Video
Версия формата : Version 2
Профиль формата : Main@High
Параметр BVOP формата : Нет
Параметр матрицы формата : По умолчанию
Идентификатор кодека : V_MPEG2
Идентификатор кодека/Информация : MPEG 1 or 2 Video
Продолжительность : 1 ч. 48 м.
Вид битрейта : Переменный
Битрейт : 19,9 Мбит/сек
Максимальный битрейт : 40,0 Мбит/сек
Ширина : 1920 пикселей
Высота : 1080 пикселей
Соотношение сторон : 16:9
Частота кадров : 23,976 кадра/сек
Цветовое пространство : YUV
Субдискретизация насыщенности : 4:2:0
Битовая глубина : 8 бит
Тип развёртки : Прогрессивная
Метод сжатия : С потерями
Бит/(Пиксели*Кадры) : 0.401
Размер потока : 15,1 Гбайт (93%)
Default : Да
Forced : Нет

Аудио #1
Идентификатор : 2
Формат : AC-3
Формат/Информация : Audio Coding 3
Расширение режима : CM (complete main)
Параметр Endianness формата : Big
Идентификатор кодека : A_AC3
Продолжительность : 1 ч. 48 м.
Вид битрейта : Постоянный
Битрейт : 640 Кбит/сек
Каналы : 6 каналов
Расположение каналов : Front: L C R, Side: L R, LFE
Частота : 48,0 КГц
Битовая глубина : 16 бит
Метод сжатия : С потерями
Размер потока : 496 Мбайт (3%)
Язык : English
Default : Нет
Forced : Нет

Аудио #2
Идентификатор : 3
Формат : AC-3
Формат/Информация : Audio Coding 3
Расширение режима : CM (complete main)
Параметр Endianness формата : Big
Идентификатор кодека : A_AC3
Продолжительность : 1 ч. 48 м.
Вид битрейта : Постоянный
Битрейт : 384 Кбит/сек
Каналы : 6 каналов
Расположение каналов : Front: L C R, Side: L R, LFE
Частота : 48,0 КГц
Битовая глубина : 16 бит
Метод сжатия : С потерями
Задержка видео : 32 мс.
Размер потока : 298 Мбайт (2%)
Заголовок : Russian
Язык : Russian
Default : Да
Forced : Нет
Свернуть
"Знаете ли Вы, что..."
  • «Сломанная стрела» - реально существующий военный сценарий в США о потере ядерного оружия.
Свернуть
Скриншоты

Изображение
Изображение
Изображение
Изображение
Изображение
Свернуть
Не в сети
Профиль  
Начать новую темуОтветить на тему  [ 1 сообщение ] 
Вы не можете начинать темы
Вы не можете отвечать на сообщения
Вы не можете редактировать свои сообщения
Вы не можете удалять свои сообщения