Правила форума

  • В этом разделе создание новых тем Запрещено.
  • Для создания новых тем пользуйтесь Корневым разделом DVD и HD фильмы.
Начать новую темуОтветить на тему  [ 1 сообщение ] 
Торрент файл
Размер: 10.86 GB • Зарегистрирован: 4 года • Статус: Проверено
Скачан: 13 раз • Желающих скачать: 0 • Поблагодарили: 3 раза
 Раздают: 0  |  0 KB/s  ]   Качают: 0  |  0 KB/s  ] 
 Полного источника не было 2 года 
Сообщения
 Добавлено: 2012-11-25 19:24
Инквизитор
Аватара пользователя
Стаж: 8 лет 8 месяцев
Сообщений: 3753
Спасибок: 28360
Лайков: 9
Изображение

Сломанные цветы
Broken Flowers


Год выпуска: 2005
Страна: США, Франция
Слоган: «Иногда жизнь преподносит странные сюрпризы.»
Жанр: драма, комедия, детектив
Перевод: Профессиональный (двухголосый), Профессиональный (многоголосый, закадровый), Авторский (Вячеслав Замез), Авторский (Алексей «Алаб» Артемьев)
Режиссер: Джим Джармуш
Сценарий: Джим Джармуш, Билл Рейден, Сара Драйвер
Продюсер: Джон Килик, Стэйси Э. Смит, Энн Рурк, Карен Л. Торсон
Оператор: Фредерик Элмс
В ролях: Билл Мюррей, Джеффри Райт, Шэрон Стоун, Фрэнсис Конрой, Джессика Лэнг, Тильда Суинтон, Жюли Дельпи, Хезер Симс, Бреа Фрэзиер, Джерри Фолл, Корка Фолл, Сауль Холлэнд
Бюджет: $10 000 000
Сборы в США: $13 744 960
Сборы в мире: $45 742 101
Описание: Утро для престарелого «Дон Жуана» Дона Джонстона начинается с того, что от него уходит очередная подружка Шерри, потеряв веру в то, что с этим человеком можно создать семью. Оставшись в одиночестве, разбирая почту, Дон обнаруживает розовый конверт.
В письме неизвестная сообщает, что двадцать лет назад, расставшись с Доном, обнаружила, что беременна. Не обращаясь за помощью к Дону, вырастила сына, которому уже 19 лет. И мальчик, которому мама не сообщила, кто его отец, решил самостоятельно увидеть папу и ушёл из дома. Дама писала, что ничего не хочет от Дона, просто предупреждает, что встреча отца с сыном вполне возможна.
Показав письмо другу Уинстону - любителю детективов - Дон получил от того совет: вспомнить всех своих подружек, которые у него были 20 лет назад и посетить их, выяснив, кто из них родил ему сына…

Изображение
MPAA:
Мировая премьера: 17 мая 2005
Релиз на DVD: 2 февраля 2006, «CP-Digital»
Релиз, раздача группы: Изображение, Изображение
Качество: BDRip, 1080p
Формат: Matroska
Видео: AVC; 25 fps
Аудио №1: Russian; AC3; 6 ch
Аудио №2: Russian; AC3; 6 ch
Аудио №3: Russian; AC3; 6 ch
Аудио №4: Russian; AC3; 2 ch
Аудио №5: AC3; 6 ch

Субтитры №1: Russian
Субтитры №2: English

mediainfo
Общее
Уникальный идентификатор : 253451683083413183155149392545992760258 (0xBEAD04C259FD8F12B1DD1B75D6E95BC2)
Полное имя : D:\Broken.Flowers.2005.1080p.BluRay.4xRus.Eng.HDCLUB.mkv
Формат : Matroska
Версия формата : Version 2
Размер файла : 10,9 Гбайт
Продолжительность : 1 ч. 41 м.
Общий поток : 15,3 Мбит/сек
Дата кодирования : UTC 2012-09-30 18:42:19
Программа кодирования : mkvmerge v5.8.0 ('No Sleep / Pillow') built on Sep 2 2012 15:37:04
Библиотека кодирования : libebml v1.2.3 + libmatroska v1.3.0

Видео
Идентификатор : 1
Формат : AVC
Формат/Информация : Advanced Video Codec
Профиль формата : High@L4.1
Параметр CABAC формата : Да
Параметр ReFrames формата : 4 кадра
Идентификатор кодека : V_MPEG4/ISO/AVC
Продолжительность : 1 ч. 41 м.
Битрейт : 12,5 Мбит/сек
Ширина : 1920 пикс.
Высота : 1080 пикс.
Соотношение сторон : 16:9
Частота кадров : 25,000 кадр/сек
Цветовое пространство : YUV
Подвыборка цветности : 4:2:0
Битовая глубина : 8 бит
Тип развёртки : Прогрессивная
Бит/(Пиксели*Кадры) : 0.241
Размер потока : 8,84 Гбайт (81%)
Заголовок : Сломанные цветы / Broken Flowers
Библиотека кодирования : x264 core 128 r2216 198a7ea
Настройки программы : cabac=1 / ref=4 / deblock=1:-3:-3 / analyse=0x3:0x113 / me=umh / subme=11 / psy=1 / psy_rd=0.95:0.05 / mixed_ref=1 / me_range=32 / chroma_me=1 / trellis=2 / 8x8dct=1 / cqm=0 / deadzone=21,11 / fast_pskip=1 / chroma_qp_offset=-3 / threads=12 / lookahead_threads=2 / sliced_threads=0 / nr=0 / decimate=1 / interlaced=0 / bluray_compat=0 / constrained_intra=0 / bframes=8 / b_pyramid=2 / b_adapt=2 / b_bias=0 / direct=1 / weightb=1 / open_gop=0 / weightp=2 / keyint=250 / keyint_min=25 / scenecut=40 / intra_refresh=0 / rc=crf / mbtree=0 / crf=18.8 / qcomp=0.70 / qpmin=0 / qpmax=69 / qpstep=4 / ip_ratio=1.40 / pb_ratio=1.30 / aq=2:0.80
Язык : English
Default : Да
Forced : Нет
Основные цвета : BT.709-5, BT.1361, IEC 61966-2-4, SMPTE RP177
Характеристики трансфера : BT.709-5, BT.1361
Коэффициенты матрицы : BT.709-5, BT.1361, IEC 61966-2-4 709, SMPTE RP177

Аудио #1
Идентификатор : 2
Формат : AC-3
Формат/Информация : Audio Coding 3
Расширение режима : CM (complete main)
Идентификатор кодека : A_AC3
Продолжительность : 1 ч. 41 м.
Вид битрейта : Постоянный
Битрейт : 640 Кбит/сек
Каналы : 6 каналов
Расположение каналов : Front: L C R, Side: L R, LFE
Частота : 48,0 КГц
Битовая глубина : 16 бит
Метод сжатия : С потерями
Задержка видео : 5 мс.
Размер потока : 464 Мбайт (4%)
Заголовок : Многоголосый закадровый, R5, CP-Digital, AC-3 640 Kbps 5/1
Язык : Russian
Default : Да
Forced : Нет

Аудио #2
Идентификатор : 3
Формат : AC-3
Формат/Информация : Audio Coding 3
Расширение режима : CM (complete main)
Идентификатор кодека : A_AC3
Продолжительность : 1 ч. 41 м.
Вид битрейта : Постоянный
Битрейт : 448 Кбит/сек
Каналы : 6 каналов
Расположение каналов : Front: L C R, Side: L R, LFE
Частота : 48,0 КГц
Битовая глубина : 16 бит
Метод сжатия : С потерями
Размер потока : 325 Мбайт (3%)
Заголовок : Двухголосый закадровый, Tycoon-Studio, AC-3 448 Kbps 5/1
Язык : Russian
Default : Нет
Forced : Нет

Аудио #3
Идентификатор : 4
Формат : AC-3
Формат/Информация : Audio Coding 3
Расширение режима : CM (complete main)
Идентификатор кодека : A_AC3
Продолжительность : 1 ч. 41 м.
Вид битрейта : Постоянный
Битрейт : 640 Кбит/сек
Каналы : 6 каналов
Расположение каналов : Front: L C R, Side: L R, LFE
Частота : 48,0 КГц
Битовая глубина : 16 бит
Метод сжатия : С потерями
Задержка видео : 5 мс.
Размер потока : 464 Мбайт (4%)
Заголовок : Одноголосый закадровый, Ю.Немахов, AC-3 640 Kbps 5/1
Язык : Russian
Default : Нет
Forced : Нет

Аудио #4
Идентификатор : 5
Формат : AC-3
Формат/Информация : Audio Coding 3
Расширение режима : CM (complete main)
Идентификатор кодека : A_AC3
Продолжительность : 1 ч. 41 м.
Вид битрейта : Постоянный
Битрейт : 192 Кбит/сек
Каналы : 2 канала
Расположение каналов : Front: L R
Частота : 48,0 КГц
Битовая глубина : 16 бит
Метод сжатия : С потерями
Размер потока : 139 Мбайт (1%)
Заголовок : Одноголосый закадровый, Алексей «Алаб» Артемьев, AC-3 192 Kbps 2/0
Язык : Russian
Default : Нет
Forced : Нет

Аудио #5
Идентификатор : 6
Формат : AC-3
Формат/Информация : Audio Coding 3
Расширение режима : CM (complete main)
Идентификатор кодека : A_AC3
Продолжительность : 1 ч. 41 м.
Вид битрейта : Постоянный
Битрейт : 640 Кбит/сек
Каналы : 6 каналов
Расположение каналов : Front: L C R, Side: L R, LFE
Частота : 48,0 КГц
Битовая глубина : 16 бит
Метод сжатия : С потерями
Задержка видео : 5 мс.
Размер потока : 464 Мбайт (4%)
Заголовок : Английский оригинал, AC-3 640 Kbps 5/1
Язык : English
Default : Нет
Forced : Нет

Текст #1
Идентификатор : 7
Формат : UTF-8
Идентификатор кодека : S_TEXT/UTF8
Идентификатор кодека/Информация : UTF-8 Plain Text
Заголовок : Субтитры (Tycoon-Studio)
Язык : Russian
Default : Нет
Forced : Нет

Текст #2
Идентификатор : 8
Формат : UTF-8
Идентификатор кодека : S_TEXT/UTF8
Идентификатор кодека/Информация : UTF-8 Plain Text
Заголовок : Субтитры
Язык : English
Default : Нет
Forced : Нет

Меню
00:00:00.000 : en:Chapter 01
00:03:28.000 : en:Chapter 02
00:08:18.000 : en:Chapter 03
00:14:53.039 : en:Chapter 04
00:19:18.440 : en:Chapter 05
00:23:09.079 : en:Chapter 06
00:27:52.400 : en:Chapter 07
00:33:46.319 : en:Chapter 08
00:38:25.239 : en:Chapter 09
00:41:48.000 : en:Chapter 10
00:44:30.639 : en:Chapter 11
00:50:29.559 : en:Chapter 12
00:55:09.760 : en:Chapter 13
01:02:36.360 : en:Chapter 14
01:08:47.840 : en:Chapter 15
01:11:53.600 : en:Chapter 16
01:19:10.760 : en:Chapter 17
01:24:13.560 : en:Chapter 18
01:30:06.239 : en:Chapter 19
01:36:42.600 : en:Chapter 20
Свернуть
"Знаете ли Вы, что..."
  • Изначально проект Джима Джармуша назывался «Мёртвые цветы» (Dead Flowers).
  • На сценарий фильма у Джима Джармуша ушло две с половиной недели.
  • Роль Дона Джонстона Джим Джармуш написал специально для Билла Мюррея, поклонником которого он является. Предварительно он рассчитывал задействовать Билла в другом фильме, но изменил свои планы.
  • Джазовая композиция «Yedermo Sew», непрерывно сопровождающая Дона Джонстона во время его одиссеи, представляет собой минорную версию композиции «Song For My Father» Хораса Сильвера.
  • В конце фильма мимо Дона проезжает автомобиль, из которого его внимательно рассматривает молодой парень. Парня играет сын Билла Мюррея Гомер.
Свернуть
Скриншоты

Изображение
Изображение
Изображение
Изображение
Изображение
Изображение
Свернуть

Не в сети
Профиль  
Начать новую темуОтветить на тему  [ 1 сообщение ] 
Вы не можете начинать темы
Вы не можете отвечать на сообщения
Вы не можете редактировать свои сообщения
Вы не можете удалять свои сообщения