Правила форума

  • В этом разделе создание новых тем Запрещено.
  • Для создания новых тем пользуйтесь Корневым разделом DVD и HD фильмы.
Начать новую темуОтветить на тему  [ 1 сообщение ] 
Торрент файл
Размер: 8.32 GB • Зарегистрирован: 3 года 10 месяцев • Статус: Проверено
Скачан: 69 раз • Желающих скачать: 0 • Поблагодарили: 26 раз
 Раздают: 0  |  0 KB/s  ]   Качают: 0  |  0 KB/s  ] 
 Полного источника не было 1 год 4 месяца 
Сообщения
 Добавлено: 2013-01-24 01:37
Руководитель релиз-группы
Аватара пользователя
Стаж: 7 лет 5 месяцев
Возраст: 31
Сообщений: 3406
Спасибок: 46729
Лайков: 5
Изображение

Слова
The Words


Год выпуска: 2012
Страна: США
Слоган: «There's more than one way to take a life.»
Жанр: драма, мелодрама
Продолжительность: 01:42:41
Перевод: Профессиональный (полное дублирование) [лицензия]
Режиссер: Брайан Клагман, Ли Стернтал
Сценарий: Брайан Клагман, Ли Стернтал
Продюсер: Майкл Бенаройя, Татьяна Келли, Джеймс М. Янг, Кассиан Элвис, Роуз Гангузза
Оператор: Антонио Кальваче
Композитор: Марсело Зарвос
В ролях: Брэдли Купер, Джереми Айронс, Оливия Уайлд, Зои Салдана, Деннис Куэйд, Брайан Клагман, Джон Ханна, Вито Филлипо, Майкл МакКин, Люсинда Дэвис, Дж.К. Симмонс, Джеймс Бэбсон
Бюджет: $6 000 000
Сборы в США: $11 494 838
Сборы в России: $135 502
Сборы в мире: $11 849 471
Описание: Рори Джэнсен - писатель, который наконец обретает долгожданную известность, но его роман-бестселлер оказывается написан другим человеком, которому он теперь должен заплатить высокую цену за украденные у него жизнь и работу.
Изображение
MPAA: Изображение
Мировая премьера: 27 января 2012
Релиз на DVD: 22 января 2013, «West Video»
Релиз на Blu-ray: 22 января 2013, «West Video»
Релиз: Изображение Раздача группы: Изображение
Качество: BDRip, 720p
Формат: AVI
Видео: MPEG-4 AVC, 9107 Кбит/с, 1280x694
Аудио #1: DTS, 6 ch, 755 Кбит/с Russian
Аудио #2: DTS, 6 ch, 1510 Кбит/с English
Субтитры: русские, английские, испанские
mediainfo
Формат : Matroska
Версия формата : Version 2
Размер файла : 8,32 Гбайт
Продолжительность : 1 ч. 42 м.
Общий поток : 11,6 Мбит/сек
Название фильма : IRONCLUB
Дата кодирования : UTC 2013-01-23 18:36:27
Программа кодирования : mkvmerge v5.2.0 ('I can't explain') built on Dec 18 2011 18:12:03
Библиотека кодирования : libebml v1.2.3 + libmatroska v1.3.0

Видео
Идентификатор : 1
Формат : AVC
Формат/Информация : Advanced Video Codec
Профиль формата : High@L4.1
Параметр CABAC формата : Да
Параметр ReFrames формата : 9 кадров
Идентификатор кодека : V_MPEG4/ISO/AVC
Продолжительность : 1 ч. 42 м.
Битрейт : 9107 Кбит/сек
Ширина : 1280 пикселей
Высота : 694 пикселя
Соотношение сторон : 16:9
Частота кадров : 23,976 кадра/сек
Цветовое пространство : YUV
Субдискретизация насыщенности : 4:2:0
Битовая глубина : 8 бит
Тип развёртки : Прогрессивная
Бит/(Пиксели*Кадры) : 0.428
Размер потока : 6,53 Гбайт (78%)
Заголовок : The Words 2012 720p BluRay x264 EbP
Библиотека кодирования : x264 core 128 r2216 198a7ea
Настройки программы : cabac=1 / ref=9 / deblock=1:-3:-3 / analyse=0x3:0x113 / me=tesa / subme=9 / psy=1 / psy_rd=1.15:0.00 / mixed_ref=1 / me_range=16 / chroma_me=1 / trellis=2 / 8x8dct=1 / cqm=0 / deadzone=21,11 / fast_pskip=0 / chroma_qp_offset=-2 / threads=12 / lookahead_threads=2 / sliced_threads=0 / nr=0 / decimate=0 / interlaced=0 / bluray_compat=0 / constrained_intra=0 / bframes=8 / b_pyramid=2 / b_adapt=2 / b_bias=0 / direct=3 / weightb=1 / open_gop=0 / weightp=2 / keyint=250 / keyint_min=23 / scenecut=40 / intra_refresh=0 / rc=crf / mbtree=0 / crf=15.8 / qcomp=0.60 / qpmin=0 / qpmax=69 / qpstep=4 / ip_ratio=1.40 / pb_ratio=1.30 / aq=1:0.50
Язык : English
Коэффициенты матрицы : BT.709-5, BT.1361, IEC 61966-2-4 709, SMPTE RP177

Аудио #1
Идентификатор : 2
Формат : DTS
Формат/Информация : Digital Theater Systems
Идентификатор кодека : A_DTS
Продолжительность : 1 ч. 42 м.
Вид битрейта : Постоянный
Битрейт : 755 Кбит/сек
Каналы : 6 каналов
Расположение каналов : Front: L C R, Side: L R, LFE
Частота : 48,0 КГц
Битовая глубина : 24 бит
Метод сжатия : С потерями
Размер потока : 554 Мбайт (7%)
Заголовок : DTS 5.1 @ 768 kbps - Dub, R5
Язык : Russian

Аудио #2
Идентификатор : 3
Формат : DTS
Формат/Информация : Digital Theater Systems
Идентификатор кодека : A_DTS
Продолжительность : 1 ч. 42 м.
Вид битрейта : Постоянный
Битрейт : 1510 Кбит/сек
Каналы : 6 каналов
Расположение каналов : Front: L C R, Side: L R, LFE
Частота : 48,0 КГц
Битовая глубина : 24 бит
Метод сжатия : С потерями
Размер потока : 1,08 Гбайт (13%)
Заголовок : DTS 5.1 @ 1536 kbps
Язык : English

Текст #1
Идентификатор : 4
Формат : UTF-8
Идентификатор кодека : S_TEXT/UTF8
Идентификатор кодека/Информация : UTF-8 Plain Text
Язык : Russian

Текст #2
Идентификатор : 5
Формат : UTF-8
Идентификатор кодека : S_TEXT/UTF8
Идентификатор кодека/Информация : UTF-8 Plain Text
Язык : English

Текст #3
Идентификатор : 6
Формат : UTF-8
Идентификатор кодека : S_TEXT/UTF8
Идентификатор кодека/Информация : UTF-8 Plain Text
Заголовок : SDH
Язык : English

Текст #4
Идентификатор : 7
Формат : UTF-8
Идентификатор кодека : S_TEXT/UTF8
Идентификатор кодека/Информация : UTF-8 Plain Text
Язык : Spanish

Меню
00:00:00.000 : en:00:00:00.000
00:03:57.988 : en:00:03:57.988
00:08:39.144 : en:00:08:39.144
00:14:33.456 : en:00:14:33.456
00:19:25.623 : en:00:19:25.623
00:25:23.981 : en:00:25:23.981
00:31:36.228 : en:00:31:36.228
00:34:43.164 : en:00:34:43.164
00:41:16.724 : en:00:41:16.724
00:45:40.780 : en:00:45:40.780
00:50:32.696 : en:00:50:32.696
00:56:45.569 : en:00:56:45.569
01:04:45.256 : en:01:04:45.256
01:11:44.050 : en:01:11:44.050
01:19:55.916 : en:01:19:55.916
01:28:32.557 : en:01:28:32.557

Свернуть
"Знаете ли Вы, что..."
  • Розамунд Пайк пробовалась на роль, которую получила Оливия Уайлд.
  • Ли Стернтал и Брайан Клагман написали сценарий еще в 1999 году. Будучи друзьями Брэдли Купера, еще до того как к нему пришла известность после фильма «Мальчишник в Вегасе» (2009), они попросили его, чтобы он сыграл главную роль. Он согласился тогда и сдержал свое слово более чем 10 лет спустя.
  • Когда Рори и Дора спорят в переулке у ресторана, слова Рори не соответствуют движениям губ.
  • В сцене, где Рори и старик находятся в оранжерее, пуговица на воротнике старика то расстегнута, то застегнута.
  • Секундная стрелка на часах Рори останавливается на 40 секундах и не двигается, когда он пьяный в квартире.
  • В двух разных сценах в Нью-Йорке можно заметить грузовики Canada Post.
Свернуть
Скриншоты

Изображение

Изображение

Изображение

Изображение
Свернуть
Не в сети
Профиль  
Начать новую темуОтветить на тему  [ 1 сообщение ] 
Вы не можете начинать темы
Вы не можете отвечать на сообщения
Вы не можете редактировать свои сообщения
Вы не можете удалять свои сообщения