Правила форума

  • В этом разделе создание новых тем Запрещено.
  • Для создания новых тем пользуйтесь Корневым разделом DVD и HD фильмы.
Начать новую темуОтветить на тему  [ Сообщений: 6 ] 
Торрент файл
Размер: 12.74 GB • Зарегистрирован: 3 года 10 месяцев • Статус: Проверено
Скачан: 135 раз • Желающих скачать: 0 • Поблагодарили: 37 раз
 Раздают: 0  |  0 KB/s  ]   Качают: 0  |  0 KB/s  ] 
 Полного источника не было 2 года 1 месяц 
Сообщения
 Добавлено: 2013-01-24 00:46
Аватара пользователя
Стаж: 9 лет 1 месяц
Сообщений: 8056
Спасибок: 122285
Лайков: 1194
Слова / The Words

«There's more than one way to take a life.»

Изображение


Год выпуска: 2012
Страна: Изображение США
Жанр: драма, мелодрама
Продолжительность: 01:42:41
Субтитры: Русские, английские
Перевод: Профессиональный (полное дублирование)[лицензия]


Режиссёр: Брайан Клагман, Ли Стернтал
Сценарист: Брайан Клагман, Ли Стернтал
Продюсер: Майкл Бенаройя, Татьяна Келли, Джеймс М. Янг
Оператор: Антонио Кальваче
Композитор: Марсело Зарвос

В ролях: Брэдли Купер, Джереми Айронс, Оливия Уайлд, Зои Салдана, Деннис Куэйд, Брайан Клагман, Джон Ханна, Вито Филлипо, Майкл МакКин, Люсинда Дэвис, Дж.К. Симмонс, Джеймс Бэбсон, Кевин Десфоссес, Рон Рифкин, Лиз Стаубер, Бен Барнс, Нора Арнезедер, Джанпаоло Венута, Рафаэль Грош-Харви, Брент Скэгфорд, Эндрю Маккэй

Описание: Рори Джэнсен — писатель, который наконец обретает долгожданную известность, но его роман-бестселлер оказывается написан другим человеком, которому он теперь должен заплатить высокую цену за украденные у него жизнь и работу.

Изображение Изображение

Качество: BDRip (1080p)
Формат: Matroska
Видео: MPEG-4 AVC, 15.5 Мбит/с, 1920x1038
Аудио №1: Русский (DTS, 6 ch, 755 Кбит/с)
Аудио №2: Английский (DTS, 6 ch, 1510 Кбит/с)

MediaInfo
Общее
Уникальный идентификатор : 188205116455644491337592897571542823604 (0x8D96FCA88D01EB4D82052924E78472B4)
Полное имя : H:\Slova.2012.D.BDRip.1080p.nntt.org.mkv
Формат : Matroska
Версия формата : Version 2
Размер файла : 12,7 Гбайт
Продолжительность : 1 ч. 42 м.
Общий поток : 17,8 Мбит/сек
Название фильма : IRONCLUB
Дата кодирования : UTC 2013-01-23 19:27:43
Программа кодирования : mkvmerge v4.9.1 ('Ich will') сборка от Jul 11 2011 23:53:15
Библиотека кодирования : libebml v1.2.1 + libmatroska v1.1.1

Видео
Идентификатор : 1
Формат : AVC
Формат/Информация : Advanced Video Codec
Профиль формата : High@L4.1
Параметр CABAC формата : Да
Параметр ReFrames формата : 4 кадра
Идентификатор кодека : V_MPEG4/ISO/AVC
Продолжительность : 1 ч. 42 м.
Битрейт : 15,5 Мбит/сек
Ширина : 1920 пикселей
Высота : 1038 пикселей
Соотношение сторон : 1,85:1
Режим частоты кадров : Постоянный
Частота кадров : 23,976 кадра/сек
Цветовое пространство : YUV
Субдискретизация насыщенности : 4:2:0
Битовая глубина : 8 бит
Тип развёртки : Прогрессивная
Бит/(Пиксели*Кадры) : 0.324
Размер потока : 10,9 Гбайт (85%)
Заголовок : The.Words.2012.1080p.Extended.BluRay.x264.DTS-HDChina
Библиотека кодирования : x264 core 129 r2230+696+36 4446aa2 tMod+MixAQ [8-bit@4:2:0 X86_64]
Настройки программы : cabac=1 / ref=4 / deblock=1:-3:-3 / analyse=0x3:0x113 / me=umh / subme=11 / psy=1 / fade_compensate=0.00 / psy_rd=1.10:0.00 / mixed_ref=1 / me_range=48 / chroma_me=1 / trellis=2 / 8x8dct=1 / cqm=0 / deadzone=21,11 / fast_pskip=0 / chroma_qp_offset=-2 / threads=18 / lookahead_threads=3 / sliced_threads=0 / nr=0 / decimate=0 / interlaced=0 / bluray_compat=0 / constrained_intra=0 / fgo=0 / bframes=8 / b_pyramid=2 / b_adapt=2 / b_bias=0 / direct=3 / weightb=1 / open_gop=0 / weightp=2 / keyint=240 / keyint_min=24 / scenecut=40 / intra_refresh=0 / rc_lookahead=240 / rc=2pass / mbtree=1 / bitrate=15500 / ratetol=1.0 / qcomp=0.70 / qpmin=0 / qpmax=69 / qpstep=4 / cplxblur=20.0 / qblur=0.5 / ip_ratio=1.10 / aq=4 / aq-strength=0.75 / aq-sensitivity=10.00 / aq-ifactor=1.00 / aq-pfactor=1.00 / aq-bfactor=1.00 / aq2=0
Язык : English
Default : Да
Forced : Да

Аудио #1
Идентификатор : 2
Формат : DTS
Формат/Информация : Digital Theater Systems
Режим : 16
Параметр Endianness формата : Big
Идентификатор кодека : A_DTS
Продолжительность : 1 ч. 42 м.
Вид битрейта : Постоянный
Битрейт : 755 Кбит/сек
Каналы : 6 каналов
Расположение каналов : Front: L C R, Side: L R, LFE
Частота : 48,0 КГц
Битовая глубина : 24 бит
Метод сжатия : С потерями
Размер потока : 554 Мбайт (4%)
Заголовок : DTS 5.1 @ 755 kbps - Dub, R5
Язык : Russian
Default : Да
Forced : Да

Аудио #2
Идентификатор : 3
Формат : DTS
Формат/Информация : Digital Theater Systems
Режим : 16
Параметр Endianness формата : Big
Идентификатор кодека : A_DTS
Продолжительность : 1 ч. 42 м.
Вид битрейта : Постоянный
Битрейт : 1509 Кбит/сек
Каналы : 6 каналов
Расположение каналов : Front: L C R, Side: L R, LFE
Частота : 48,0 КГц
Битовая глубина : 16 бит
Метод сжатия : С потерями
Размер потока : 1,08 Гбайт (8%)
Заголовок : DTS 5.1 @ 1536 kbps
Язык : English
Default : Нет
Forced : Нет

Текст #1
Идентификатор : 4
Формат : UTF-8
Идентификатор кодека : S_TEXT/UTF8
Идентификатор кодека/Информация : UTF-8 Plain Text
Язык : Russian
Default : Нет
Forced : Нет

Текст #2
Идентификатор : 5
Формат : UTF-8
Идентификатор кодека : S_TEXT/UTF8
Идентификатор кодека/Информация : UTF-8 Plain Text
Язык : Russian
Default : Нет
Forced : Нет

Меню
00:00:00.000 : en:00:00:00.000
00:03:57.988 : en:00:03:57.988
00:08:39.144 : en:00:08:39.144
00:14:33.456 : en:00:14:33.456
00:19:25.623 : en:00:19:25.623
00:25:23.981 : en:00:25:23.981
00:31:36.228 : en:00:31:36.228
00:34:43.164 : en:00:34:43.164
00:41:16.724 : en:00:41:16.724
00:45:40.780 : en:00:45:40.780
00:50:32.696 : en:00:50:32.696
00:56:45.569 : en:00:56:45.569
01:04:45.256 : en:01:04:45.256
01:11:44.050 : en:01:11:44.050
01:19:55.916 : en:01:19:55.916
01:28:32.557 : en:01:28:32.557
Свернуть
Знаете ли вы, что...
Розамунд Пайк пробовалась на роль, которую получила Оливия Уайлд.

Ли Стернтал и Брайан Клагман написали сценарий еще в 1999 году. Будучи друзьями Брэдли Купера, еще до того как к нему пришла известность после фильма «Мальчишник в Вегасе» (2009), они попросили его, чтобы он сыграл главную роль. Он согласился тогда и сдержал свое слово более чем 10 лет спустя.

Когда Рори и Дора спорят в переулке у ресторана, слова Рори не соответствуют движениям губ.

В сцене, где Рори и старик находятся в оранжерее, пуговица на воротнике старика то расстегнута, то застегнута.

Секундная стрелка на часах Рори останавливается на 40 секундах и не двигается, когда он пьяный в квартире.

В двух разных сценах в Нью-Йорке можно заметить грузовики Canada Post.
Свернуть
Скриншоты
Изображение
Изображение
Изображение
Изображение
Изображение
Свернуть
Не в сети
Профиль  
 Добавлено: 2013-01-26 17:57 (спустя 2 дня 17 часов)
Стаж: 7 лет 2 месяца
Сообщений: 81
ЛЕнивый фильм.
Фильм о писателе,который написал книгу о писателе,который написал книгу потом случайно нашел и переписал другую книгу написанную другим писателем,который пришел потом к нему и рассказал свою историю написания книги.
Досматривал пролистывая фильм.
Хотя обе дамочки в фильме хороши.
С качеством проблемы,тормозит видео,звук хорошо идет.(5600+атлон 2х,3,5гб оперативы,1920х1080 монитор,видео 6670 радеон)Смотрел на джет аудио и VLC
Не в сети
Профиль  
 Добавлено: 2013-02-09 14:00 (спустя 13 дней)
Стаж: 7 лет 11 месяцев
Возраст: 19
Сообщений: 123
Спасибок: 128
Какой #@$ назвал вторые субтитры русскими ?
Не в сети
Профиль  
 Добавлено: 2013-03-17 17:53 (спустя 1 месяц 8 дней)
Стаж: 4 года 6 месяцев
Сообщений: 71
Спасибок: 2
скоростиии!!!!
Не в сети
Профиль  
 Добавлено: 2014-01-09 21:08 (спустя 9 месяцев)
Аватара пользователя
Стаж: 7 лет 6 месяцев
Сообщений: 4
раздайте, пож!!
Не в сети
Профиль  
 Добавлено: 2014-01-21 19:51 (спустя 11 дней)
Стаж: 2 года 11 месяцев
Сообщений: 21
+1
Не в сети
Профиль  
Начать новую темуОтветить на тему  [ Сообщений: 6 ] 
Вы не можете начинать темы
Вы не можете отвечать на сообщения
Вы не можете редактировать свои сообщения
Вы не можете удалять свои сообщения