Правила форума

  • В этом разделе создание новых тем Запрещено.
  • Для создания новых тем пользуйтесь Корневым разделом DVD и HD фильмы.
Начать новую темуОтветить на тему  [ 1 сообщение ] 
Торрент файл
Размер: 19.65 GB • Зарегистрирован: 3 года 8 месяцев • Статус: Проверено
Скачан: 17 раз • Желающих скачать: 0 • Поблагодарили: 5 раз
 Раздают: 0  |  0 KB/s  ]   Качают: 0  |  0 KB/s  ] 
 Полного источника не было 3 года 2 месяца 
Сообщения
 Добавлено: 2013-04-06 20:25
Модератор релиз-группы
Аватара пользователя
Стаж: 7 лет 8 месяцев
Возраст: 29
Сообщений: 9789
Спасибок: 23730
Лайков: 103
Изображение

Слова
The Words


Год выпуска: 2012
Страна: США
Слоган: «There's more than one way to take a life.»
Жанр: драма, мелодрама, детектив
Продолжительность: 01:42:41
Перевод: Профессиональный (полное дублирование)
Режиссер: Брайан Клагман, Ли Стернтал
Сценарий: Брайан Клагман, Ли Стернтал
Продюсер: Майкл Бенаройя, Джеймс М. Янг, Татьяна Келли, Лиза Уилсон, Лиза Уилсон
Оператор: Антонио Кальваче
Композитор: Марсело Зарвос
В ролях: Брэдли Купер, Джереми Айронс, Оливия Уайлд, Зои Салдана, Деннис Куэйд, Брайан Клагман, Джон Ханна, Вито Филлипо, Майкл МакКин, Люсинда Дэвис, Дж.К. Симмонс, Джеймс Бэбсон
Бюджет: $6 000 000
Сборы в США: $11 494 838
Сборы в России: $135 502
Сборы в мире: $13 231 461
Мировая премьера: 27 января 2012
Релиз на DVD: 22 января 2013, «West Video»
Релиз на Blu-ray: 22 января 2013, «West Video»
Описание: Рори Джэнсен - писатель, который наконец обретает долгожданную известность, но его роман-бестселлер оказывается написан другим человеком, которому он теперь должен заплатить высокую цену за украденные у него жизнь и работу.

Изображение User Rating: 7.612 (13 462)
Изображение User Rating: 6.90 (22 174)
MPAA: PG-13 - Детям до 13 лет просмотр не желателен
Раздача группы: Изображение
Релиз группы: Изображение
Качество: BD-Remux, 1080p
Формат: MKV
Видео: AVC; 1920x1080 (16:9); 23,976 fps
Аудио №1: DTS-HD; VBR; 6 ch; 16 bit
Аудио №2: русский; DTS; 755 Kbps; CBR; 6 ch; 24 bit
Аудио №3: русский; AC3; 448 Kbps; CBR; 6 ch

Субтитры №1: английские
Субтитры №2: английские
Субтитры №3: русские

mediainfo
General
Unique ID : 238971197314778307486366829457183183592 (0xB3C82DB09158C33C9472D4BD7C4592E8)
Complete name : E:\TheWords.2012.Blu-rayRemux.HDTracker.mkv
Format : Matroska
Format version : Version 4 / Version 2
File size : 19.6 GiB
Duration : 1h 42mn
Overall bit rate mode : Variable
Overall bit rate : 27.4 Mbps
Movie name : PiratCa
Encoded date : UTC 2013-01-23 20:07:52
Writing application : mkvmerge v6.0.0 ('Coming Up For Air') built on Jan 20 2013 09:52:00
Writing library : libebml v1.3.0 + libmatroska v1.4.0

Video
ID : 1
Format : AVC
Format/Info : Advanced Video Codec
Format profile : High@L4.1
Format settings, CABAC : Yes
Format settings, ReFrames : 2 frames
Codec ID : V_MPEG4/ISO/AVC
Duration : 1h 42mn
Bit rate mode : Variable
Bit rate : 24.1 Mbps
Width : 1 920 pixels
Height : 1 080 pixels
Display aspect ratio : 16:9
Frame rate : 23.976 fps
Color space : YUV
Chroma subsampling : 4:2:0
Bit depth : 8 bits
Scan type : Progressive
Bits/(Pixel*Frame) : 0.484
Stream size : 17.3 GiB (88%)
Language : English
Default : Yes
Forced : No

Audio #1
ID : 2
Format : DTS
Format/Info : Digital Theater Systems
Format profile : MA / Core
Codec ID : A_DTS
Duration : 1h 42mn
Bit rate mode : Variable
Bit rate : 1 561 Kbps / 1 510 Kbps
Channel(s) : 6 channels
Channel positions : Front: L C R, Side: L R, LFE
Sampling rate : 48.0 KHz
Bit depth : 16 bits
Compression mode : Lossless / Lossy
Language : English
Default : No
Forced : No

Audio #2
ID : 5
Format : DTS
Format/Info : Digital Theater Systems
Codec ID : A_DTS
Duration : 1h 42mn
Bit rate mode : Constant
Bit rate : 755 Kbps
Channel(s) : 6 channels
Channel positions : Front: L C R, Side: L R, LFE
Sampling rate : 48.0 KHz
Bit depth : 24 bits
Compression mode : Lossy
Stream size : 554 MiB (3%)
Title : DTS 5.1 @ 768 kbps - Dub, R5
Language : Russian
Default : No
Forced : No

Audio #3
ID : 6
Format : AC-3
Format/Info : Audio Coding 3
Mode extension : CM (complete main)
Format settings, Endianness : Big
Codec ID : A_AC3
Duration : 1h 42mn
Bit rate mode : Constant
Bit rate : 448 Kbps
Channel(s) : 6 channels
Channel positions : Front: L C R, Side: L R, LFE
Sampling rate : 48.0 KHz
Bit depth : 16 bits
Compression mode : Lossy
Stream size : 329 MiB (2%)
Title : Dub, R5
Language : Russian
Default : Yes
Forced : Yes

Text #1
ID : 3
Format : PGS
Muxing mode : zlib
Codec ID : S_HDMV/PGS
Codec ID/Info : The same subtitle format used on BDs/HD-DVDs
Language : English
Default : Yes
Forced : No

Text #2
ID : 4
Format : PGS
Muxing mode : zlib
Codec ID : S_HDMV/PGS
Codec ID/Info : The same subtitle format used on BDs/HD-DVDs
Title : SDH
Language : English
Default : No
Forced : No

Text #3
ID : 7
Format : UTF-8
Codec ID : S_TEXT/UTF8
Codec ID/Info : UTF-8 Plain Text
Language : Russian
Default : No
Forced : No

Menu
00:00:00.000 : en:00:00:00.000
00:03:57.988 : en:00:03:57.988
00:08:39.144 : en:00:08:39.144
00:14:33.456 : en:00:14:33.456
00:19:25.623 : en:00:19:25.623
00:25:23.981 : en:00:25:23.981
00:31:36.228 : en:00:31:36.228
00:34:43.164 : en:00:34:43.164
00:41:16.724 : en:00:41:16.724
00:45:40.780 : en:00:45:40.780
00:50:32.696 : en:00:50:32.696
00:56:45.569 : en:00:56:45.569
01:04:45.256 : en:01:04:45.256
01:11:44.050 : en:01:11:44.050
01:19:55.916 : en:01:19:55.916
01:28:32.557 : en:01:28:32.557
Свернуть
"Знаете ли Вы, что..."
  • Розамунд Пайк пробовалась на роль, которую получила Оливия Уайлд.
  • Ли Стернтал и Брайан Клагман написали сценарий еще в 1999 году. Будучи друзьями Брэдли Купера, еще до того как к нему пришла известность после фильма «Мальчишник в Вегасе» (2009), они попросили его, чтобы он сыграл главную роль. Он согласился тогда и сдержал свое слово более чем 10 лет спустя.
  • Когда Рори и Дора спорят в переулке у ресторана, слова Рори не соответствуют движениям губ.
  • В сцене, где Рори и старик находятся в оранжерее, пуговица на воротнике старика то расстегнута, то застегнута.
  • Секундная стрелка на часах Рори останавливается на 40 секундах и не двигается, когда он пьяный в квартире.
  • В двух разных сценах в Нью-Йорке можно заметить грузовики Canada Post.
Свернуть
Скриншоты

Изображение
Изображение
Изображение
Изображение
Изображение
Изображение
Изображение
Изображение
Изображение
Свернуть


Тема поднималась пользователем volkov2009 2013-04-06 20:25.
Не в сети
Профиль  
Начать новую темуОтветить на тему  [ 1 сообщение ] 
Вы не можете начинать темы
Вы не можете отвечать на сообщения
Вы не можете редактировать свои сообщения
Вы не можете удалять свои сообщения