Правила форума

  • В этом разделе создание новых тем Запрещено.
  • Для создания новых тем пользуйтесь Корневым разделом DVD и HD фильмы.
Начать новую темуОтветить на тему  [ Сообщений: 3 ] 
Торрент файл
Размер: 9.06 GB • Зарегистрирован: 5 лет 3 месяца • Статус: Проверено
Скачан: 25 раз • Желающих скачать: 0 • Поблагодарили: 12 раз
 Раздают: 0  |  0 KB/s  ]   Качают: 0  |  0 KB/s  ] 
 Полного источника не было 7 месяцев 
Сообщения
 Добавлено: 2011-08-17 12:17
Модератор релиз-группы
Аватара пользователя
Стаж: 9 лет 1 месяц
Возраст: 97
Сообщений: 11659
Спасибок: 6532
Лайков: 269
Смерч / Twister

Изображение


Год выпуска: 1996
Страна: сша
Жанр: Катастрофа,триллер, драма, приключения
Продолжительность: 01:53:04
Перевод: Профессиональный (дубляж)
Дублеры: Александра Кожевникова,Вадим Гущин,Геннадий Богачёв,Елена Павловская,Иван Паршин
Оригинальная звуковая дорожка
Субтитры: Английские

Режиссёр: Ян де Бонт
В ролях: Хелен Хант, Билл Пэкстон, Филип Сэймур Хоффман, Кэри Элвес, Джейми Гертц, Джереми Дэвис, Тодд Филд
Описание: Поражающий воображение, снятый с большим размахом фильм-катастрофа, в создании которого принимали участие такие мастера кассовых кинолент, как сценарист Майкл Крайтон ("Конго", "Парк Юрского периода", режиссер фильмов "Беглец", "Кома") и легендарный Стивен Спилберг (здесь он выступил в качестве продюсера). Рушащиеся, словно карточные домики, здания, разорванные линии электропередач, поднятые в воздух автомобили и животные, гибнущие люди... Мелкими и незначительными оказываются личные неурядицы героев перед лицом разбушевавшейся стихии. В отчаянный поединок с грозным и малоизученным явлением природы вступают ученые-метеорологи.

Изображение
Качество: BDRip
Формат: mkv
Видео кодек: MPEG-4(AVC)
Аудио кодек: AC3 (Dolby Digital)
Видео: 1920x794, 23.976 fps, 9530 Kbps
Аудио #1: AC3, 6 channels,Front: L C R, Side: L R, LFE, 448 Kbps, 48.0 KHz [Профессиональный (дубляж)]
Аудио #2: DTS, 6 channels,Front: L C R, Side: L R, LFE, 1 510 Kbps, 48.0 KHz [Оригинальная звуковая дорожка]
Субтитры: Английские
Скриншоты
Изображение
Изображение
Изображение
Изображение
Изображение
Свернуть

Mi
Format : Matroska
Format version : Version 2
File size : 9.06 GiB
Duration : 1h 53mn
Overall bit rate : 11.5 Mbps
Encoded date : UTC 2011-08-17 08:56:50
Writing application : mkvmerge v4.8.0 ('I Got The...') сборка от May 24 2011 03:12:58
Writing library : libebml v1.2.0 + libmatroska v1.1.0

Video
ID : 1
Format : AVC
Format/Info : Advanced Video Codec
Format profile : High@L4.1
Format settings, CABAC : Yes
Format settings, ReFrames : 4 frames
Codec ID : V_MPEG4/ISO/AVC
Duration : 1h 53mn
Bit rate : 9 529 Kbps
Width : 1 920 pixels
Height : 794 pixels
Display aspect ratio : 2.40:1
Frame rate : 23.976 fps
Color space : YUV
Chroma subsampling : 4:2:0
Bit depth : 8 bits
Scan type : Progressive
Bits/(Pixel*Frame) : 0.261
Stream size : 7.33 GiB (81%)
Title : x264 - 2 passes
Writing library : x264 core 59 r839M 27c3071
Encoding settings : cabac=1 / ref=4 / deblock=1:-1:-1 / analyse=0x3:0x113 / me=umh / subme=7 / me-prepass=0 / brdo=1 / mixed_ref=1 / me_range=16 / chroma_me=1 / trellis=1 / 8x8dct=1 / cqm=0 / deadzone=21,11 / chroma_qp_offset=0 / threads=6 / nr=0 / decimate=0 / mbaff=0 / fgo=10 / bframes=8 / b_pyramid=1 / b_adapt=1 / b_bias=0 / direct=1 / wpredb=1 / bime=1 / keyint=250 / keyint_min=25 / scenecut=40(pre) / rc=2pass / bitrate=9529 / ratetol=2.0 / rceq='blurCplx^(1-qComp)' / qcomp=1.00 / qpmin=10 / qpmax=51 / qpstep=4 / cplxblur=20.0 / qblur=0.5 / vbv_maxrate=38000 / vbv_bufsize=30000 / ip_ratio=1.40 / pb_ratio=1.15 / aq=2:1.00
Language : English

Audio #1
ID : 2
Format : AC-3
Format/Info : Audio Coding 3
Mode extension : CM (complete main)
Codec ID : A_AC3
Duration : 1h 53mn
Bit rate mode : Constant
Bit rate : 448 Kbps
Channel(s) : 6 channels
Channel positions : Front: L C R, Side: L R, LFE
Sampling rate : 48.0 KHz
Bit depth : 16 bits
Compression mode : Lossy
Stream size : 362 MiB (4%)
Title : Russian AC3 448 Kbps
Language : Russian

Audio #2
ID : 3
Format : DTS
Format/Info : Digital Theater Systems
Codec ID : A_DTS
Duration : 1h 53mn
Bit rate mode : Constant
Bit rate : 1 510 Kbps
Channel(s) : 6 channels
Channel positions : Front: L C R, Side: L R, LFE
Sampling rate : 48.0 KHz
Bit depth : 24 bits
Compression mode : Lossy
Stream size : 1.19 GiB (13%)
Title : English dts 1536 Kbps
Language : English

Text
ID : 4
Format : UTF-8
Codec ID : S_TEXT/UTF8
Codec ID/Info : UTF-8 Plain Text
Language : English

Свернуть
Не в сети
Профиль  
 Добавлено: 2011-08-17 12:36 (спустя 18 минут)
Top-seeder
Аватара пользователя
Стаж: 7 лет 6 месяцев
Возраст: 21
Сообщений: 74
Спасибок: 90
Ооо...
Спасибо большое!!!)))
Очень давно смотрел,пожалуй посмотрю еще разок!!!)))

Добавлено спустя 15 минут:
Скорость радует!!!)))
20% скачал уже...
Не в сети
Профиль  
 Добавлено: 2013-04-03 10:50 (спустя 1 год 7 месяцев)
Стаж: 7 лет 9 месяцев
Сообщений: 16
Люди добрые, помогите скачать!
Не в сети
Профиль  
Начать новую темуОтветить на тему  [ Сообщений: 3 ] 
Вы не можете начинать темы
Вы не можете отвечать на сообщения
Вы не можете редактировать свои сообщения
Вы не можете удалять свои сообщения