Правила форума

  • В этом разделе создание новых тем Запрещено.
  • Для создания новых тем пользуйтесь Корневым разделом DVD и HD фильмы.
Начать новую темуОтветить на тему  [ Сообщений: 7 ] 
Торрент файл
Размер: 11.61 GB • Зарегистрирован: 5 лет 1 месяц • Статус: Проверено
Скачан: 72 раза • Желающих скачать: 0 • Поблагодарили: 28 раз
 Раздают: 0  |  0 KB/s  ]   Качают: 0  |  0 KB/s  ] 
 Полного источника не было 8 месяцев 
Сообщения
 Добавлено: 2011-10-13 15:06
Top-seeder
Аватара пользователя
Стаж: 9 лет
Сообщений: 1399
Спасибок: 28651
Лайков: 8
Смертельная битва / Mortal Kombat

Изображение


Перевод: Профессиональный (многоголосый, закадровый)
Субтитры: русские, английские (все - внешние)
Формат: BDRip, MKV, H.264, AC3/DTS HD MA
Страна: США
Режиссер: Пол У. С. Андерсон
Жанр: фантастика, фэнтези, боевик, триллер, приключения
Продолжительность: 01:41:25
Год выпуска: 1995

В ролях: Кристофер Ламберт, Робин Шу, Линден Эшби, Кэри-Хироюки Тагава, Бриджет Уилсон, Талиса Сото, Трэвор Годдард, Крис Касамасса, Франсуа Пети, Кит Кук

Описание: Несколько столетий назад Шанг Тсунг — маг из потустороннего мира захватил в свои руки древний воинский турнир. Его цель — ввергнуть наш мир в хаос. Чтобы спасти человечество от гибели, троим воинам предстоит битва… Смертельная битва с силами мрака.

Видео: 1920x1072p (16:9), 23.976 fps, AVC MPEG4 (x264), High@L4.1, ~10.0 Mbps avg, 0.203 bit/pixel
Аудио #1: русский 48 kHz, AC3, 6 ch, ~448 kbps avg [Профессиональный (многоголосый) (CP Digital)]
Аудио #2: русский 48 kHz, AC3, 2 ch, ~192 kbps avg [Профессиональный (двухголосый) (НТВ)] (Внешний файл)
Аудио #3: русский 48 kHz, AC3, 2 ch, ~192 kbps avg [Авторский (одноголосый) (Сергей Визгунов)] (Внешний файл)
Аудио #4: русский 48 kHz, AC3, 6 ch, ~384 kbps avg [Авторский (одноголосый) (Юрий Живов)] (Внешний файл)
Аудио #5: русский 48 kHz, AC3, 6 ch, ~448 kbps avg [Авторский (одноголосый) (Юрий Сербин)] (Внешний файл)
Аудио #6: английский 48 kHz, AC3, 6 ch, ~448 kbps avg [Оригинал] (Внешний файл)
Аудио #7: английский 48 kHz, DTS HD MA, 6 ch, ~4176.00 kbps avg, 24 bit (DTS Core:48 kHz, 6 ch, 1510 kbps, 24-bit) [Оригинал] (Внешний файл)

Сэмпл в папке

Слоган: «Ничто в этом мире не сможет подготовить вас к этому.»

MI
Общее
Уникальный идентификатор : 238135954676628722490431114949035897056 (0xB327510C5999C836B0CA428B6B4D30E0)
Полное имя : D:\Закачки\Смертельная битва\Smertelnaja_bitva.1995.BDRip.1080p.mkv
Формат : Matroska
Размер файла : 7,40 Гбайт
Продолжительность : 1 ч. 41 м.
Общий поток : 10,4 Мбит/сек
Дата кодирования : UTC 2011-10-10 09:43:07
Программа кодирования : mkvmerge v5.0.0 ('Die Wahre Liebe') built on Sep 25 2011 20:33:49
Библиотека кодирования : libebml v1.2.2 + libmatroska v1.3.0

Видео
Идентификатор : 1
Формат : AVC
Формат/Информация : Advanced Video Codec
Профиль формата : High@L4.1
Параметр CABAC формата : Да
Параметр ReFrames формата : 4 кадра
Идентификатор кодека : V_MPEG4/ISO/AVC
Продолжительность : 1 ч. 41 м.
Битрейт : 10000 Кбит/сек
Ширина : 1920 пикс.
Высота : 1072 пикс.
Соотношение сторон : 16:9
Частота кадров : 23,976 кадр/сек
Цветовое пространство : YUV
Подвыборка цветности : 4:2:0
Битовая глубина : 8 бит
Тип развёртки : Прогрессивная
Бит/(Пиксели*Кадры) : 0.203
Размер потока : 6,94 Гбайт (94%)
Заголовок : 1995.BDRip.1080p
Библиотека кодирования : x264 core 116 r2074 2641b9e
Настройки программы : cabac=1 / ref=4 / deblock=1:-3:-3 / analyse=0x3:0x113 / me=umh / subme=9 / psy=1 / psy_rd=1.00:0.15 / mixed_ref=1 / me_range=32 / chroma_me=1 / trellis=2 / 8x8dct=1 / cqm=0 / deadzone=21,11 / fast_pskip=0 / chroma_qp_offset=-3 / threads=3 / sliced_threads=0 / nr=0 / decimate=0 / interlaced=0 / bluray_compat=0 / constrained_intra=0 / bframes=10 / b_pyramid=2 / b_adapt=2 / b_bias=0 / direct=3 / weightb=1 / open_gop=0 / weightp=2 / keyint=250 / keyint_min=23 / scenecut=40 / intra_refresh=0 / rc=2pass / mbtree=0 / bitrate=10000 / ratetol=1.0 / qcomp=0.60 / qpmin=0 / qpmax=69 / qpstep=4 / cplxblur=20.0 / qblur=0.5 / ip_ratio=1.40 / pb_ratio=1.30 / aq=1:1.00
Язык : English

Аудио
Идентификатор : 2
Формат : AC-3
Формат/Информация : Audio Coding 3
Расширение режима : CM (complete main)
Идентификатор кодека : A_AC3
Продолжительность : 1 ч. 41 м.
Вид битрейта : Постоянный
Битрейт : 448 Кбит/сек
Каналы : 6 каналов
Расположение каналов : Front: L C R, Side: L R, LFE
Частота : 48,0 КГц
Битовая глубина : 16 бит
Метод сжатия : С потерями
Размер потока : 325 Мбайт (4%)
Заголовок : MVO (CP Dighital)
Язык : Russian

Свернуть
Скриншоты
ИзображениеИзображениеИзображениеИзображениеИзображение
Свернуть
Не в сети
Профиль  
 Добавлено: 2011-10-13 15:30 (спустя 24 минуты)
Аватара пользователя
Стаж: 7 лет 2 месяца
Сообщений: 7167
Спасибок: 81972
Лайков: 2438
Офигенный фильм.Музыкалка-супер. :ya_hoo_oo: :co_ol: :-ok-:
Не в сети
Профиль  
 Добавлено: 2011-10-13 21:50 (спустя 6 часов)
Аватара пользователя
Стаж: 7 лет 11 месяцев
Сообщений: 994
Лайков: 73
раздавай!!! спс!
Не в сети
Профиль  
 Добавлено: 2011-10-14 08:17 (спустя 10 часов)
Кинокомментатор
Аватара пользователя
Стаж: 9 лет
Сообщений: 1331
Лайков: 52
а что это? и зачем это тут? 95ого года фильм... в прилепленных новинках... я что то пропустил?) революция на сайте?)
_________________
Я ВКонтакте
Не в сети
Профиль  
 Добавлено: 2011-10-17 14:43 (спустя 3 дня)
Аватара пользователя
Стаж: 7 лет 7 месяцев
Сообщений: 214
Лайков: 2
отличный фильм в отличном качестве! спасибо!!!!
Не в сети
Профиль  
 Добавлено: 2011-10-19 15:59 (спустя 2 дня 1 час)
Аватара пользователя
Стаж: 8 лет 3 месяца
Сообщений: 67
TEST YOUR MIGHT ! :men:
Не в сети
Профиль  
 Добавлено: 2012-09-06 03:38 (спустя 10 месяцев)
Стаж: 7 лет 3 месяца
Сообщений: 4
помогите раздать,пожалуйста
Не в сети
Профиль  
Начать новую темуОтветить на тему  [ Сообщений: 7 ] 
Вы не можете начинать темы
Вы не можете отвечать на сообщения
Вы не можете редактировать свои сообщения
Вы не можете удалять свои сообщения