Правила форума

  • В этом разделе создание новых тем Запрещено.
  • Для создания новых тем пользуйтесь Корневым разделом DVD и HD фильмы.
Начать новую темуОтветить на тему  [ Сообщений: 5 ] 
Торрент файл
Размер: 10.55 GB • Зарегистрирован: 5 лет 9 месяцев • Статус: Проверено
Скачан: 135 раз • Желающих скачать: 0 • Поблагодарили: 23 раза
 Раздают: 0  |  0 KB/s  ]   Качают: 0  |  0 KB/s  ] 
 Полного источника не было 7 месяцев 
Сообщения
 Добавлено: 2011-02-25 15:47
Модератор релиз-группы
Аватара пользователя
Стаж: 9 лет 1 месяц
Возраст: 97
Сообщений: 11659
Спасибок: 6531
Лайков: 269
Смертельная Битва / Mortal Kombat

Изображение


Год выпуска: 1995
Страна: США
Слоган: «Ничто в этом мире не сможет подготовить Вас к этому.»
Жанр: фантастика, боевик, триллер, фэнтези, приключения
Продолжительность: 01:41:21
Перевод: Профессиональный (многоголосый закадровый из Blu-ray)
профессиональный многоголосый закадровый ( с лицензионного ДВД)
Профессиональный (многоголосый закадровый)
Авторский одноголосый (Ю.Сербин из Blu-ray)
Оригинальная звуковая дорожка
Субтитры: Русские, Английские

Режиссёр: Пол У. С. Андерсон / Paul W.S. Anderson
В ролях: Кристофер Ламберт, Робин Шу, Линден Эшби, Кэри-Хироюки Тагава, Бриджет Уилсон, Талиса Сото, Трэвор Годдард, Крис Касамасса, Франсуа Пети, Кит Кук
Описание: Несколько столетий назад Шанг Тсунг — маг из потустороннего мира захватил в свои руки древний воинский турнир. Его цель — ввергнуть наш мир в хаос. Чтобы спасти человечество от гибели, троим воинам предстоит битва… смертельная битва с силами мрака.
Бюджет: $20 000 000
Кассовые сборы: $122 195 920
Изображение 7.518 оценки: 15406

Изображение
Качество: BDRip, 1080p
Формат: MKV
Видео кодек: H264 (AVC)
Аудио кодек: AC3 (Dolby Digital)
Видео: 1920x1080p, 23.976 fps, 13.9 Mbps
Аудио #1: Russian: 48 kHz, AC3, 3/2 (L,C,R,l,r) + LFE ch, 448.00 kbps avg [Профессиональный (многоголосый закадровый) (Blu-ray)]
Аудио #2: Russian: 48 kHz, AC3, 3/2 (L,C,R,l,r) + LFE ch, 384.00 kbps avg [профессиональный многоголосый закадровый ( с лицензионного ДВД)]
Аудио #3: Russian: 48 kHz, AC3, 3/2 (L,C,R,l,r) + LFE ch, 384.00 kbps avg [Профессиональный (многоголосый закадровый)]
Аудио #4: Russian: 48 kHz, AC3, 3/2 (L,C,R,l,r) + LFE ch, 448.00 kbps avg [Авторский одноголосый (Ю.Сербин) (Blu-ray)]
Аудио #5: English: 48 kHz, AC3, 3/2 (L,C,R,l,r) + LFE ch, 448.00 kbps avg [Оригинальная звуковая дорожка]
Субтитры: Русские, Английские
Скриншоты
Изображение

Изображение

Изображение

Изображение

Изображение
Свернуть

Mi
Format : Matroska
File size : 10.5 GiB
Duration : 1h 41mn
Overall bit rate : 14.9 Mbps
Movie name : -=DKom=-
Encoded date : UTC 2010-05-10 07:43:47
Writing application : mkvmerge v3.3.0 ('Language') built on Mar 24 2010 14:59:24
Writing library : libebml v0.8.0 + libmatroska v0.9.0

Video
ID : 1
Format : AVC
Format/Info : Advanced Video Codec
Format profile : High@L4.1
Format settings, CABAC : Yes
Format settings, ReFrames : 3 frames
Codec ID : V_MPEG4/ISO/AVC
Duration : 1h 41mn
Bit rate : 12.5 Mbps
Nominal bit rate : 13.9 Mbps
Width : 1 920 pixels
Height : 1 080 pixels
Display aspect ratio : 16:9
Frame rate : 23.976 fps
Color space : YUV
Chroma subsampling : 4:2:0
Bit depth : 8 bits
Scan type : Progressive
Bits/(Pixel*Frame) : 0.251
Stream size : 8.84 GiB (84%)
Title : Mortal Kombat, 1995, -=DKom=-
Writing library : x264 core 92 r1510 33d382a
Encoding settings : cabac=1 / ref=4 / deblock=1:-3:-3 / analyse=0x3:0x133 / me=umh / subme=9 / psy=1 / psy_rd=1.00:0.00 / mixed_ref=1 / me_range=64 / chroma_me=1 / trellis=2 / 8x8dct=1 / cqm=0 / deadzone=21,11 / fast_pskip=0 / chroma_qp_offset=-2 / threads=3 / sliced_threads=0 / nr=0 / decimate=1 / interlaced=0 / constrained_intra=0 / bframes=7 / b_pyramid=1 / b_adapt=2 / b_bias=0 / direct=3 / wpredb=1 / wpredp=2 / keyint=250 / keyint_min=25 / scenecut=40 / intra_refresh=0 / rc_lookahead=40 / rc=2pass / mbtree=1 / bitrate=13911 / ratetol=1.0 / qcomp=0.60 / qpmin=10 / qpmax=51 / qpstep=4 / cplxblur=20.0 / qblur=0.5 / vbv_maxrate=25000 / vbv_bufsize=25000 / ip_ratio=1.40 / aq=1:1.00 / nal_hrd=none
Language : English

Audio #1
ID : 2
Format : AC-3
Format/Info : Audio Coding 3
Mode extension : CM (complete main)
Codec ID : A_AC3
Duration : 1h 41mn
Bit rate mode : Constant
Bit rate : 448 Kbps
Channel(s) : 6 channels
Channel positions : Front: L C R, Side: L R, LFE
Sampling rate : 48.0 KHz
Bit depth : 16 bits
Compression mode : Lossy
Stream size : 325 MiB (3%)
Title : 448.00 kbps |Многоголосый закадровый #1|
Language : Russian

Audio #2
ID : 3
Format : AC-3
Format/Info : Audio Coding 3
Mode extension : CM (complete main)
Codec ID : A_AC3
Duration : 1h 41mn
Bit rate mode : Constant
Bit rate : 384 Kbps
Channel(s) : 6 channels
Channel positions : Front: L C R, Side: L R, LFE
Sampling rate : 48.0 KHz
Bit depth : 16 bits
Compression mode : Lossy
Stream size : 278 MiB (3%)
Title : 384.00 kbps |Многоголосый закадровый #2|
Language : Russian

Audio #3
ID : 4
Format : AC-3
Format/Info : Audio Coding 3
Mode extension : CM (complete main)
Codec ID : A_AC3
Duration : 1h 41mn
Bit rate mode : Constant
Bit rate : 384 Kbps
Channel(s) : 6 channels
Channel positions : Front: L C R, Side: L R, LFE
Sampling rate : 48.0 KHz
Bit depth : 16 bits
Compression mode : Lossy
Stream size : 278 MiB (3%)
Title : 384.00 kbps |Многоголосый закадровый #3|
Language : Russian

Audio #4
ID : 5
Format : AC-3
Format/Info : Audio Coding 3
Mode extension : CM (complete main)
Codec ID : A_AC3
Duration : 1h 41mn
Bit rate mode : Constant
Bit rate : 448 Kbps
Channel(s) : 6 channels
Channel positions : Front: L C R, Side: L R, LFE
Sampling rate : 48.0 KHz
Bit depth : 16 bits
Compression mode : Lossy
Stream size : 325 MiB (3%)
Title : 448.00 kbps |Одноголосый закадровый, Ю.Сербин|
Language : Russian

Audio #5
ID : 6
Format : AC-3
Format/Info : Audio Coding 3
Mode extension : CM (complete main)
Codec ID : A_AC3
Duration : 1h 41mn
Bit rate mode : Constant
Bit rate : 448 Kbps
Channel(s) : 6 channels
Channel positions : Front: L C R, Side: L R, LFE
Sampling rate : 48.0 KHz
Bit depth : 16 bits
Compression mode : Lossy
Stream size : 325 MiB (3%)
Title : 448.00 kbps
Language : English

Text #1
ID : 7
Format : UTF-8
Codec ID : S_TEXT/UTF8
Codec ID/Info : UTF-8 Plain Text
Language : Russian

Text #2
ID : 8
Format : UTF-8
Codec ID : S_TEXT/UTF8
Codec ID/Info : UTF-8 Plain Text
Language : English

Свернуть
_________________
Изображение
Не в сети
Профиль  
 Добавлено: 2011-02-26 12:39 (спустя 20 часов)
Sony Ericsson
Аватара пользователя
Стаж: 8 лет 1 месяц
Сообщений: 560
Спасибок: 496
олдскул! мастхэв!
_________________
HTC Sensation
Не в сети
Профиль  
 Добавлено: 2011-02-26 14:03 (спустя 1 час 24 минуты)
Top-seeder
Стаж: 7 лет 10 месяцев
Сообщений: 283
Спасибок: 429
Лайков: 3
Да, у этого фильма много клонов.
Спасибо нажал, но качать не буду, слишком часто его смотрел.
_________________
HTPC1:Q8300+GF9300|HTPC2:i3570k+z77|Ресивер:Denon 3806|Акустика:Monitor Audio Silver 5.1(3*RSLCR, RSFX, RSW12)|ТВ:Sharp 52x20
Не в сети
Профиль  
 Добавлено: 2011-02-26 21:26 (спустя 7 часов)
Аватара пользователя
Стаж: 6 лет 10 месяцев
Возраст: 32
Сообщений: 12
блин,вещ!!!качать лень,но спасибо!!!
Не в сети
Профиль  
 Добавлено: 2012-01-13 21:57 (спустя 10 месяцев)
Аватара пользователя
Стаж: 8 лет
Сообщений: 1390
Спасибок: 39
Лайков: 63
Забираю :(
Не в сети
Профиль  
Начать новую темуОтветить на тему  [ Сообщений: 5 ] 
Вы не можете начинать темы
Вы не можете отвечать на сообщения
Вы не можете редактировать свои сообщения
Вы не можете удалять свои сообщения