Правила форума

  • В этом разделе создание новых тем Запрещено.
  • Для создания новых тем пользуйтесь Корневым разделом DVD и HD фильмы.
Начать новую темуОтветить на тему  [ Сообщений: 3 ] 
Торрент файл
Размер: 10.88 GB • Зарегистрирован: 3 года 10 месяцев • Статус: Проверено
Скачан: 183 раза • Желающих скачать: 0 • Поблагодарили: 30 раз
 Раздают: 0  |  0 KB/s  ]   Качают: 0  |  0 KB/s  ] 
 Полного источника не было 8 месяцев 
Сообщения
 Добавлено: 2013-02-04 05:44
Аватара пользователя
Стаж: 9 лет 1 месяц
Сообщений: 7989
Спасибок: 122237
Лайков: 1193
Смертельная гонка 3 / Death Race: Inferno

Изображение


Год выпуска: 2012
Страна: Изображение США
Жанр: боевик, триллер, криминал
Продолжительность: 01:45:12
Перевод: Профессиональный (полное дублирование) [Лицензия]


Режиссёр: Роэль Рейн
Сценарист: Тони Гиглио
Продюсер: Пол У. С. Андерсон, Джереми Болт, Майк Эллиот
Оператор: Роэль Рейн, Уэйн Шилдс
Композитор: Тревор Моррис

В ролях: Дэнни Трехо, Винг Реймз, Дюгрэй Скотт, Люк Госс, Танит Феникс, Робин Шоу, Фредерик Колер, Таня ван Граан, Лэнгли Кирквуд, Шон Майкл, Джереми Кратчли, Роксана Хейуорд

Описание: Осужденный полицейский-убийца Карл Лукас, он же Франкенштейн, суперзвезда жестоких тюремных гонок на выживание, известных как Смертельная Гонка. Только одна победа отделяет его от получения свободы для себя и своей команды. Однако теперь Лукас оказался в совершенно новом, ещё более порочном соревновании. Сражаясь против властных закулисных сил и безжалостных противников, Лукас борется, чтобы спасти себя и свою команду в адской гонке в пустыне Калахари и получить свободу.

Изображение Изображение

Качество: BDRip (1080p)
Формат: Matroska
Видео: MPEG-4 AVC, 12.1 Мбит/с, 1920x1080, 23.976 кадр/с
Аудио №1: Русский (АС3, 6 ch, 448 Кбит/с)
Аудио №2: Русский (DTS, 6 ch, 768 Кбит/с)
Аудио №3: Английский (DTS, 6 ch, 1510 Кбит/с)

MediaInfo
Общее
Уникальный идентификатор : 240233886295666484143504478870855242418 (0xB4BB5D10209BCD8891A829874F6052B2)
Полное имя : H:\Death.Race.Inferno.2012.BluRay.1080p.x264.nntt.org.mkv
Формат : Matroska
Версия формата : Version 2
Размер файла : 10,9 Гбайт
Продолжительность : 1 ч. 45 м.
Общий поток : 14,8 Мбит/сек
Дата кодирования : UTC 2013-02-04 03:53:01
Программа кодирования : mkvmerge v5.7.0 ('The Whirlwind') built on Jul 29 2012 15:12:35
Библиотека кодирования : libebml v1.2.3 + libmatroska v1.3.0

Видео
Идентификатор : 1
Формат : AVC
Формат/Информация : Advanced Video Codec
Профиль формата : High@L4.1
Параметр CABAC формата : Да
Параметр ReFrames формата : 4 кадра
Идентификатор кодека : V_MPEG4/ISO/AVC
Продолжительность : 1 ч. 45 м.
Битрейт : 12,1 Мбит/сек
Ширина : 1920 пикселей
Высота : 1080 пикселей
Соотношение сторон : 16:9
Режим частоты кадров : Постоянный
Частота кадров : 23,976 кадра/сек
Цветовое пространство : YUV
Субдискретизация насыщенности : 4:2:0
Битовая глубина : 8 бит
Тип развёртки : Прогрессивная
Бит/(Пиксели*Кадры) : 0.243
Размер потока : 8,66 Гбайт (80%)
Библиотека кодирования : x264 core 120 r2120 0c7dab9
Настройки программы : cabac=1 / ref=4 / deblock=1:-3:-3 / analyse=0x3:0x113 / me=umh / subme=10 / psy=1 / psy_rd=1.05:0.10 / mixed_ref=1 / me_range=48 / chroma_me=1 / trellis=2 / 8x8dct=1 / cqm=0 / deadzone=21,11 / fast_pskip=0 / chroma_qp_offset=-2 / threads=12 / sliced_threads=0 / nr=0 / decimate=1 / interlaced=0 / bluray_compat=0 / constrained_intra=0 / bframes=6 / b_pyramid=2 / b_adapt=2 / b_bias=0 / direct=3 / weightb=1 / open_gop=0 / weightp=2 / keyint=250 / keyint_min=23 / scenecut=40 / intra_refresh=0 / rc_lookahead=40 / rc=2pass / mbtree=0 / bitrate=12097 / ratetol=2.0 / qcomp=0.70 / qpmin=0 / qpmax=69 / qpstep=4 / cplxblur=20.0 / qblur=0.5 / vbv_maxrate=40000 / vbv_bufsize=30000 / nal_hrd=none / ip_ratio=1.40 / pb_ratio=1.30 / aq=2:1.00
Язык : English
Default : Да
Forced : Нет

Аудио #1
Идентификатор : 2
Формат : AC-3
Формат/Информация : Audio Coding 3
Расширение режима : CM (complete main)
Параметр Endianness формата : Big
Идентификатор кодека : A_AC3
Продолжительность : 1 ч. 45 м.
Вид битрейта : Постоянный
Битрейт : 448 Кбит/сек
Каналы : 6 каналов
Расположение каналов : Front: L C R, Side: L R, LFE
Частота : 48,0 КГц
Битовая глубина : 16 бит
Метод сжатия : С потерями
Размер потока : 337 Мбайт (3%)
Язык : Russian
Default : Да
Forced : Да

Аудио #2
Идентификатор : 3
Формат : DTS
Формат/Информация : Digital Theater Systems
Режим : 16
Параметр Endianness формата : Big
Идентификатор кодека : A_DTS
Продолжительность : 1 ч. 45 м.
Вид битрейта : Постоянный
Битрейт : 768 Кбит/сек
Каналы : 6 каналов
Расположение каналов : Front: L C R, Side: L R, LFE
Частота : 48,0 КГц
Битовая глубина : 24 бит
Метод сжатия : С потерями
Размер потока : 578 Мбайт (5%)
Заголовок : DTS 5.1 @ 768 kbps - Dub, BD EUR
Язык : Russian
Default : Нет
Forced : Нет

Аудио #3
Идентификатор : 4
Формат : DTS
Формат/Информация : Digital Theater Systems
Режим : 16
Параметр Endianness формата : Big
Идентификатор кодека : A_DTS
Продолжительность : 1 ч. 45 м.
Вид битрейта : Постоянный
Битрейт : 1509 Кбит/сек
Каналы : 6 каналов
Расположение каналов : Front: L C R, Side: L R, LFE
Частота : 48,0 КГц
Битовая глубина : 24 бит
Метод сжатия : С потерями
Задержка видео : 11 мс.
Размер потока : 1,11 Гбайт (10%)
Язык : English
Default : Нет
Forced : Нет

Текст #1
Идентификатор : 5
Формат : UTF-8
Идентификатор кодека : S_TEXT/UTF8
Идентификатор кодека/Информация : UTF-8 Plain Text
Заголовок : Romanian
Язык : Romanian
Default : Да
Forced : Нет

Текст #2
Идентификатор : 6
Формат : UTF-8
Идентификатор кодека : S_TEXT/UTF8
Идентификатор кодека/Информация : UTF-8 Plain Text
Default : Нет
Forced : Нет
Свернуть
Скриншоты
Изображение
Изображение
Изображение
Изображение
Изображение
Свернуть
Не в сети
Профиль  
 Добавлено: 2013-02-04 19:57 (спустя 14 часов)
Аватара пользователя
Стаж: 8 лет 9 месяцев
Сообщений: 1170
Спасибок: 1294
Лайков: 7
тавтологическое описание
Не в сети
Профиль  
 Добавлено: 2013-02-06 20:58 (спустя 2 дня 1 час)
Стаж: 8 лет 6 месяцев
Сообщений: 1
:)
Не в сети
Профиль  
Начать новую темуОтветить на тему  [ Сообщений: 3 ] 
Вы не можете начинать темы
Вы не можете отвечать на сообщения
Вы не можете редактировать свои сообщения
Вы не можете удалять свои сообщения