Правила форума

  • В этом разделе создание новых тем Запрещено.
  • Для создания новых тем пользуйтесь Корневым разделом DVD и HD фильмы.
Начать новую темуОтветить на тему  [ Сообщений: 4 ] 
Торрент файл
Размер: 6.81 GB • Зарегистрирован: 5 лет 6 месяцев • Статус: Проверено
Скачан: 299 раз • Желающих скачать: 0 • Поблагодарили: 38 раз
 Раздают: 0  |  0 KB/s  ]   Качают: 0  |  0 KB/s  ] 
 Полного источника не было 1 месяц 26 дней 
Сообщения
 Добавлено: 2011-05-13 13:51
Модератор
Аватара пользователя
Стаж: 8 лет 1 месяц
Возраст: 20
Сообщений: 32130
Спасибок: 98571
Лайков: 80
Изображение

Смертельный список / The Hit List


Год выпуска: 2011
Страна: США
Слоган: «Two Men. Five Targets. One Night.»

Жанр: боевик, триллер
Продолжительность: 01:26:27
Перевод: Профессиональный (многоголосый, закадровый) [лицензия]

Режиссер: Уильям Кауфман
В ролях: Кьюба Гудинг мл., Коул Хаузер, Джонатан ЛаПалья, Дрю Уотерс, Шон Кук, Майкл Пападжон, Дж.П. О’Шонесси, Дэвид Эндриол, Брэндон О’Нейлл
Бюджет: $6 000 000

Мировая премьера: 3 апреля 2011
Релиз на DVD: 12 мая 2011, «Columbia/Sony»
Описание: Однажды вечером бизнесмен Аллан Кэмпбелл, раздавленный чередой обрушившихся на него неприятностей, знакомится с таинственным незнакомцем Джонасом Арбором. Джонас представляется… профессиональным наемником и предлагает Аллану убить пятерых - на его выбор и совершенно бесплатно. Расценив предложение как неудачную шутку, Аллан составляет список жертв. Но уже на следующий день попавшие в злополучный перечень начинают по очереди погибать... Преследуемый полицией и мучимый чувством вины, Аллан бросается наперегонки со временем, чтобы помешать убийце - ведь за месть всегда приходится расплачиваться.
Изображение
MPAA: Изображение - Лицам до 17 лет обязательно присутствие взрослого
Качество: BDRip 1080p R5
Формат: MKV

Видео: 8850 kb/s, 1920x1080
Аудио: Russian: AC3, 448 kb/s (6 ch) / English: DTS, 1510 kb/s (6 ch)
Субтитры: Ukrainian, English [SDH]
Доп. материалы: нет
Изображение
MediaInfo
General

Complete name                    : The.Hit.List.2011.P.BDRip.1080p.UNIONGANG.mkv
Format                           : Matroska
File size                        : 6.81 GiB
Duration                         : 1h 30mn
Overall bit rate                 : 10.8 Mbps
Movie name                       : The.Hit.List.2011.P.BDRip.1080p  -TVB-  UNIONGANG
Encoded date                     : UTC 2011-05-12 22:45:01
Writing application              : mkvmerge v4.7.0 ('Just Like You Imagined') сборка от Apr 21 2011 01:13:14
Writing library                  : libebml v1.2.0 + libmatroska v1.1.0

Video
ID                               : 1
Format                           : AVC
Format/Info                      : Advanced Video Codec
Format profile                   : High@L4.1
Format settings, CABAC           : Yes
Format settings, ReFrames        : 4 frames
Codec ID                         : V_MPEG4/ISO/AVC
Duration                         : 1h 30mn
Bit rate                         : 8 850 Kbps
Width                            : 1 920 pixels
Height                           : 1 080 pixels
Display aspect ratio             : 16:9
Frame rate                       : 23.976 fps
Color space                      : YUV
Chroma subsampling               : 4:2:0
Bit depth                        : 8 bits
Scan type                        : Progressive
Bits/(Pixel*Frame)               : 0.178
Stream size                      : 5.44 GiB (80%)
Writing library                  : x264 core 114 r1924 08d04a4
Encoding settings                : cabac=1 / ref=4 / deblock=1:-2:-2 / analyse=0x3:0x113 / me=umh / subme=10 / psy=1 / psy_rd=1.00:0.05 / mixed_ref=1 / me_range=32 / chroma_me=1 / trellis=2 / 8x8dct=1 / cqm=2 / deadzone=21,11 / fast_pskip=0 / chroma_qp_offset=-2 / threads=12 / sliced_threads=0 / nr=0 / decimate=1 / interlaced=0 / constrained_intra=0 / bframes=5 / b_pyramid=2 / b_adapt=2 / b_bias=0 / direct=3 / weightb=1 / open_gop=0 / weightp=2 / keyint=250 / keyint_min=23 / scenecut=40 / intra_refresh=0 / rc_lookahead=50 / rc=2pass / mbtree=1 / bitrate=8850 / ratetol=1.0 / qcomp=0.70 / qpmin=1 / qpmax=63 / qpstep=4 / cplxblur=20.0 / qblur=0.5 / vbv_maxrate=40000 / vbv_bufsize=30000 / nal_hrd=none / ip_ratio=1.40 / aq=2:1.00
Language                         : English

Audio #1
ID                               : 2
Format                           : AC-3
Format/Info                      : Audio Coding 3
Mode extension                   : CM (complete main)
Codec ID                         : A_AC3
Duration                         : 1h 30mn
Bit rate mode                    : Constant
Bit rate                         : 448 Kbps
Channel(s)                       : 6 channels
Channel positions                : Front: L C R, Side: L R, LFE
Sampling rate                    : 48.0 KHz
Bit depth                        : 16 bits
Compression mode                 : Lossy
Stream size                      : 289 MiB (4%)
Language                         : Russian

Audio #2
ID                               : 3
Format                           : DTS
Format/Info                      : Digital Theater Systems
Codec ID                         : A_DTS
Duration                         : 1h 30mn
Bit rate mode                    : Constant
Bit rate                         : 1 510 Kbps
Channel(s)                       : 6 channels
Channel positions                : Front: L C R, Side: L R, LFE
Sampling rate                    : 48.0 KHz
Bit depth                        : 24 bits
Compression mode                 : Lossy
Delay relative to video          : 11ms
Stream size                      : 974 MiB (14%)
Language                         : English

Text #1
ID                               : 4
Format                           : UTF-8
Codec ID                         : S_TEXT/UTF8
Codec ID/Info                    : UTF-8 Plain Text
Language                         : Ukrainian

Text #2
ID                               : 5
Format                           : UTF-8
Codec ID                         : S_TEXT/UTF8
Codec ID/Info                    : UTF-8 Plain Text
Language                         : English

Свернуть
Скриншоты
Изображение

Изображение

Изображение

Изображение
Свернуть
Не в сети
Профиль  
 Добавлено: 2011-05-22 08:11 (спустя 8 дней)
Аватара пользователя
Стаж: 8 лет 11 месяцев
Возраст: 35
Сообщений: 33
посмотрим что за фильм! :)
Не в сети
Профиль  
 Добавлено: 2011-05-22 22:59 (спустя 14 часов)
Стаж: 8 лет 1 месяц
Сообщений: 9
Спасибок: 26
Классный фильм :co_ol:
Не в сети
Профиль  
 Добавлено: 2011-08-02 17:14 (спустя 2 месяца 10 дней)
Аватара пользователя
Стаж: 7 лет 11 месяцев
Сообщений: 786
Спасибок: 25
Лайков: 9
:men: Качаю :men:
Не в сети
Профиль  
Начать новую темуОтветить на тему  [ Сообщений: 4 ] 
Вы не можете начинать темы
Вы не можете отвечать на сообщения
Вы не можете редактировать свои сообщения
Вы не можете удалять свои сообщения