Правила форума

  • В этом разделе создание новых тем Запрещено.
  • Для создания новых тем пользуйтесь Корневым разделом DVD и HD фильмы.
Начать новую темуОтветить на тему  [ Сообщений: 2 ] 
Торрент файл
Размер: 6.67 GB • Зарегистрирован: 2 года 10 месяцев • Статус: Проверено
Скачан: 41 раз • Желающих скачать: 0 • Поблагодарили: 19 раз
 Раздают: 0  |  0 KB/s  ]   Качают: 0  |  0 KB/s  ] 
 Полного источника не было 1 год 11 месяцев 
Сообщения
 Добавлено: 2014-01-23 09:58
Аватара пользователя
Стаж: 4 года 1 месяц
Сообщений: 12
Спасибок: 268
Лайков: 2
Смертельный спуск / Deadly Descent

Изображение


Год выпуска: 2013
Страна: США (UFO International Productions)
Слоган: "Друзья встретиться лицом к лицу со смертельным существом"
Жанр: Ужасы, фантастика, фэнтези, триллер
Продолжительность: 01:24:58
Перевод: Профессиональный (многоголосый закадровый) + Оригинальная звуковая дорожка
Субтитры: Нет

Режиссёр: Марко Макилааксо
Сценарист: Нэйтан Аткинс
Продюсер: Джеффри Бич, Джон Каппилла, Чериз Хони
Оператор: Лоренцо Сенаторе
Композитор: Кристофер Холден
В ролях: Адриан Пол, Чак Кэмпбелл, Элизабет Крофт, Лорен О'Нил, Николас Боултон, Сэм Кэссиди, Джесси Стил, Шон Тил
Описание: Кошмарный хищник атакует группу участников поисково-спасательной операции в отдаленных заснеженных горах.
Рейтинг MPAA: Рейтинг PG-13 (Дети до 13 лет допускаются на фильм только с родителями)
Мировая премьера: 26 января 2013
Премьера в России: 26 января 2013
Изображение 3.271 (122)
Изображение 3.00 (227)

Качество: BDRip 1080p
Формат: MKV
Видео кодек: V_MPEG4/ISO/AVC
Аудио кодек: AC3 (Dolby Digital)
Видео: 16:9, 1920x1080, 9531 Кбит/сек, 23,976 кадра/сек, 0.192 bit/pixel
Аудио #1: Russian: A_AC3, 2 канала, 192 Кбит/сек [Профессиональный (многоголосый закадровый)]
Аудио #2: English: A_DTS, 6 каналов, 1509 Кбит/сек [Оригинальная звуковая дорожка]
Субтитры: Нет
Скриншоты
Изображение
Изображение
Изображение
Изображение
Изображение
Свернуть

MediaInfo
Общее
Формат : MKV
Версия формата : Version 4 / Version 2
Размер файла : 6,67 Гбайт
Продолжительность : 1 ч. 24 м.
Общий поток : 11,2 Мбит/сек
Название фильма : Deadly Descent
Дата кодирования : UTC 2014-01-21 16:12:24

Видео
Идентификатор : 1
Формат : AVC
Формат/Информация : Advanced Video Codec
Профиль формата : High@L4.1
Параметр CABAC формата : Да
Параметр ReFrames формата : 4 кадра
Идентификатор кодека : V_MPEG4/ISO/AVC
Продолжительность : 1 ч. 24 м.
Битрейт : 9531 Кбит/сек
Ширина : 1920 пикселей
Высота : 1080 пикселей
Соотношение сторон : 16:9
Режим частоты кадров : Постоянный
Частота кадров : 23,976 кадра/сек
Цветовое пространство : YUV
Субдискретизация насыщенности : 4:2:0
Битовая глубина : 8 бит
Тип развёртки : Прогрессивная
Бит/(Пиксели*Кадры) : 0.192
Размер потока : 5,53 Гбайт (83%)
Заголовок : Release Group CINEMANIA
Библиотека кодирования : x264 core 140 r2377 1ca7bb9
Язык : English
Default : Да
Forced : Нет

Аудио #1
Идентификатор : 2
Формат : AC-3
Формат/Информация : Audio Coding 3
Расширение режима : CM (complete main)
Параметр Endianness формата : Big
Идентификатор кодека : A_AC3
Продолжительность : 1 ч. 24 м.
Вид битрейта : Постоянный
Битрейт : 192 Кбит/сек
Каналы : 2 канала
Расположение каналов : Front: L R
Частота : 48,0 КГц
Битовая глубина : 16 бит
Метод сжатия : С потерями
Размер потока : 117 Мбайт (2%)
Заголовок : IVI
Язык : Russian
Default : Да
Forced : Да

Аудио #2
Идентификатор : 3
Формат : DTS
Формат/Информация : Digital Theater Systems
Режим : 16
Параметр Endianness формата : Big
Идентификатор кодека : A_DTS
Продолжительность : 1 ч. 24 м.
Вид битрейта : Постоянный
Битрейт : 1509 Кбит/сек
Каналы : 6 каналов
Расположение каналов : Front: L C R, Side: L R, LFE
Частота : 48,0 КГц
Битовая глубина : 16 бит
Метод сжатия : С потерями
Размер потока : 917 Мбайт (13%)
Язык : English
Default : Нет
Forced : Нет
Свернуть

Изображение
_________________
Изображение
Не в сети
Профиль  
 Добавлено: 2014-02-17 17:02 (спустя 25 дней)
Стаж: 7 лет 8 месяцев
Сообщений: 33
Лайков: 1
rfrf :-[
Не в сети
Профиль  
Начать новую темуОтветить на тему  [ Сообщений: 2 ] 
Вы не можете начинать темы
Вы не можете отвечать на сообщения
Вы не можете редактировать свои сообщения
Вы не можете удалять свои сообщения