Правила форума

  • В этом разделе создание новых тем Запрещено.
  • Для создания новых тем пользуйтесь Корневым разделом DVD и HD фильмы.
Начать новую темуОтветить на тему  [ Сообщений: 6 ] 
Торрент файл
Размер: 53.87 GB • Зарегистрирован: 4 года 4 месяца • Статус: Проверено
Скачан: 25 раз • Желающих скачать: 0 • Поблагодарили: 15 раз
 Раздают: 0  |  0 KB/s  ]   Качают: 0  |  0 KB/s  ] 
 Полного источника не было 3 года 2 месяца 
Сообщения
 Добавлено: 2012-07-07 14:39
Top-releaser
Аватара пользователя
Стаж: 6 лет 7 месяцев
Сообщений: 2078
Спасибок: 3230
Лайков: 9
Смертельное оружие: Квадрология / Lethal Weapon: Collection


Изображение


Смертельное оружие / Lethal Weapon
Смертельное оружие / Lethal Weapon
«Two Cops. Glover carries a weapon.....
Gibson is one. He's the only L.A cop registered as a Lethal Weapon»

Изображение


Год выпуска: 1987
Страна: США
Жанр: боевик, триллер, комедия, криминал
Продолжительность: 01:49:37
Перевод: Профессиональный (дублированный) - Blu-Ray CEE
Перевод 2: Профессиональный (дублированный) - Варус Видео
Перевод 3: Профессиональный (многоголосый) - Киномания
Перевод 4: Профессиональный (многоголосый) - Премьер Видео
Перевод 5: Профессиональный (многоголосый) - ОРТ
Перевод 6: Профессиональный (многоголосый) - РТР
Перевод 7: Авторский одноголосый - Гаврилов
Перевод 8: Авторский одноголосый - Гаврилов поздн.
Перевод 9: Авторский одноголосый - Живов
Перевод 10: Авторский одноголосый - Михалёв
Перевод 11: Авторский одноголосый - Володарский
Перевод 12: Авторский одноголосый - Горчаков
Перевод 13: Авторский одноголосый - Либергал
Оригинальная аудиодорожка: Английский

Режиссёр: Ричард Доннер
В ролях: Мэл Гибсон, Дэнни Гловер, Гэри Бьюзи, Митч Райан, Том Аткинс, Дарлен Лав, Трэйси Вульф, Джеки Суонсон, Дэймон Хайнс, Эбони Смит
Описание: Обаяние этого вечного приключенческого сюжета о паре полицейских — в великолепной игре Гибсона и Гловера. Первый — слегка чокнутый смельчак Риггз, которому из-за его легендарного вьетнамского прошлого и не менее легендарного настоящего дали уважительную кличку «смертельное оружие». Его чернокожий напарник Мертаф — человек куда более земной, обремененный семьей и предрассудками.

Раздача группы: Изображение

Качество: BDRip, 1080p
Формат: MKV
Видео кодек: H.264
Аудио кодек: AC3 (Dolby Digital)
Видео: MPEG-4 AVC, 10,7 Мбит/с, 1920x1080, 23,976 fps
Аудио: АС3, 6 ch, 640 Кбит/с - Blu-Ray CEE
Аудио 2: АС3, 48 КГц, 2 ch, 256 Кбит/с - Варус Видео
Аудио 3: АС3, 48 КГц, 6 ch, 384 Кбит/с - Киномания
Аудио 4: АС3, 48 КГц, 6 ch, 448 Кбит/с - Премьер Видео
Аудио 5: АС3, 48 КГц, 2 ch, 192 Кбит/с - ОРТ
Аудио 6: АС3, 48 КГц, 2 ch, 192 Кбит/с - РТР
Аудио 7: АС3, 48 КГц, 6 ch, 448 Кбит/с - Гаврилов
Аудио 8: АС3, 48 КГц, 6 ch, 448 Кбит/с - Гаврилов поздн.
Аудио 9: АС3, 48 КГц, 6 ch, 448 Кбит/с - Живов
Аудио 10: АС3, 48 КГц, 6 ch, 448 Кбит/с - Михалёв
Аудио 11: АС3, 48 КГц, 6 ch, 448 Кбит/с - Володарский
Аудио 12: DTS, 48 КГц, 6 ch, 1510 Кбит/с - Горчаков
Аудио 13: АС3, 48 КГц, 6 ch, 448 Кбит/с - Либергал
Аудио 14: DTS, 48 КГц, 6 ch, 1510 Кбит/с - Оригинал
Субтитры: Русские, Английские

Знаете ли вы, что...
• Франко Джеффирелли решил предложить Мэлу Гибсону роль Гамлета, после того как увидел сцену, где Риггз пытается совершить самоубийство.
• Фильм посвящен памяти Дара Робинсона, известнейшего каскадера, погибшего в автомобильной аварии во время пост-продакшна картины.
• Для фильма были сняты альтернативные начало и концовка, которые можно посмотреть на DVD «Смертельное оружие 4». Изначально фильм должен был начинаться со сцены, в которой Мартин Риггз пьёт в одиночестве в каком-то баре, где к нему пристают несколько отморозков, требующие его деньги. Риггз говорит, что все свои деньги он хранит в банке, а также говорит парням отстать от него. Конечно, они его не слушаются, и Риггз жестоко избивает их. Бармен дает Риггзу бесплатную бутылку спиртного и говорит, чтобы он больше здесь не появлялся. Уже по ходу съёмок Ричард Доннер решил представить Риггза в более дружелюбной манере и снял сцену, где Мартин просыпается в своем трейлере. Альтернативная концовка представляла собой сцену, где Мёрто говорит Риггзу, что подумывает о пенсии, но Мартин отговаривает его от принятия данного решения.
• В одной из сцен фильма на заднем плане можно заметить кинотеатр, где идут «Пропащие ребята» (1987), продюсером которых был Ричард Доннер.
• В сцене, где героиня Джеки Суонсон падает с высокоэтажного здания, Джеки отказалось от услуг дублеров и сама исполнила трюк.
• Количество убитых: 26.
• По словам Гари Бьюзи, он получил роль Джошуа, потому что продюсеры искали актера, способного достоверно изобразить реальную угрозу для персонажа Мэла Гибсона. Бьюзи признает «Смертельное оружие» фильмом, придавшим второе дыхание для его карьеры.
• Леонарду Нимому предлагали поставить фильм, но он отказался, предпочтя поработать над «Тремя мужчинами и младенцем» (1987).
• В фильме, Роджеру Мёрто около 50. На момент съёмок Дэнни Гловеру было 40.
• Согласно статье в июньском номере 2007 года «Vanity Fair», кандидатура Брюса Уиллиса рассматривалась на роль Риггза.
• Режиссёрский вариант фильма имеет хронометраж 117 минут.
Свернуть
MediaInfo
Общее
Уникальный идентификатор : 192043675371848863750390993557579719513 (0x907A4439886CBCEA8056B9ADD9596359)
Полное имя : Z:\WWW\TR-Downloads\Smertelnoe.oruzhie.Quadrology.1080p[R.G.Daredevil]\Smertelnoe.oruzhie.1.1987.1080p.mkv
Формат : Matroska
Версия формата : Version 2
Размер файла : 14,5 Гбайт
Продолжительность : 1 ч. 50 м.
Общий поток : 18,9 Мбит/сек
Название фильма : Smertelnoe.oruzhie.1.1987.x264.BDRip.1080p.Troyanec27
Дата кодирования : UTC 2010-12-01 16:23:32
Программа кодирования : mkvmerge v3.4.0 ('Rapunzel') сборка от May 15 2010 09:38:20
Библиотека кодирования : libebml v0.8.0 + libmatroska v0.9.0

Видео
Идентификатор : 1
Формат : AVC
Формат/Информация : Advanced Video Codec
Профиль формата : High@L4.1
Параметр CABAC формата : Да
Параметр ReFrames формата : 4 кадра
Идентификатор кодека : V_MPEG4/ISO/AVC
Продолжительность : 1 ч. 50 м.
Битрейт : 11,1 Мбит/сек
Ширина : 1920 пикселей
Высота : 1080 пикселей
Соотношение сторон : 16:9
Частота кадров : 23,976 кадра/сек
Цветовое пространство : YUV
Субдискретизация насыщенности : 4:2:0
Битовая глубина : 8 бит
Тип развёртки : Прогрессивная
Бит/(Пиксели*Кадры) : 0.224
Размер потока : 8,22 Гбайт (57%)
Библиотека кодирования : x264 core 107 r1745+311 2317302
Настройки программы : cabac=1 / ref=4 / deblock=1:-3:-3 / analyse=0x3:0x133 / me=umh / subme=10 / psy=1 / fade_compensate=0.00 / psy_rd=1.00:0.00 / mixed_ref=1 / me_range=64 / chroma_me=1 / trellis=2 / 8x8dct=1 / cqm=0 / deadzone=21,11 / fast_pskip=0 / chroma_qp_offset=-2 / threads=12 / sliced_threads=0 / nr=0 / decimate=0 / interlaced=0 / constrained_intra=0 / fgo=0 / bframes=10 / b_pyramid=2 / b_adapt=2 / b_bias=0 / direct=3 / weightb=1 / open_gop=0 / weightp=2 / keyint=250 / keyint_min=23 / scenecut=40 / intra_refresh=0 / rc_lookahead=60 / rc=2pass / mbtree=1 / bitrate=11145 / ratetol=1.0 / qcomp=0.60 / qpmin=10 / qpmax=51 / qpstep=4 / cplxblur=20.0 / qblur=0.5 / ip_ratio=1.40 / aq=1:1.00
Язык : English
Default : Нет
Forced : Нет

Аудио #1
Идентификатор : 2
Формат : AC-3
Формат/Информация : Audio Coding 3
Расширение режима : CM (complete main)
Параметр Endianness формата : Big
Идентификатор кодека : A_AC3
Продолжительность : 1 ч. 50 м.
Вид битрейта : Постоянный
Битрейт : 640 Кбит/сек
Каналы : 6 каналов
Расположение каналов : Front: L C R, Side: L R, LFE
Частота : 48,0 КГц
Битовая глубина : 16 бит
Метод сжатия : С потерями
Размер потока : 505 Мбайт (3%)
Заголовок : DUB CEE
Язык : Russian
Default : Да
Forced : Нет

Аудио #2
Идентификатор : 3
Формат : AC-3
Формат/Информация : Audio Coding 3
Расширение режима : CM (complete main)
Параметр Endianness формата : Big
Идентификатор кодека : A_AC3
Продолжительность : 1 ч. 50 м.
Вид битрейта : Постоянный
Битрейт : 256 Кбит/сек
Каналы : 2 канала
Расположение каналов : Front: L R
Частота : 48,0 КГц
Битовая глубина : 16 бит
Метод сжатия : С потерями
Размер потока : 202 Мбайт (1%)
Заголовок : DUB Varus
Язык : Russian
Default : Нет
Forced : Нет

Аудио #3
Идентификатор : 4
Формат : AC-3
Формат/Информация : Audio Coding 3
Расширение режима : CM (complete main)
Параметр Endianness формата : Big
Идентификатор кодека : A_AC3
Продолжительность : 1 ч. 50 м.
Вид битрейта : Постоянный
Битрейт : 384 Кбит/сек
Каналы : 6 каналов
Расположение каналов : Front: L C R, Side: L R, LFE
Частота : 48,0 КГц
Битовая глубина : 16 бит
Метод сжатия : С потерями
Размер потока : 303 Мбайт (2%)
Заголовок : MVO Kinomaniya
Язык : Russian
Default : Нет
Forced : Нет

Аудио #4
Идентификатор : 5
Формат : AC-3
Формат/Информация : Audio Coding 3
Расширение режима : CM (complete main)
Параметр Endianness формата : Big
Идентификатор кодека : A_AC3
Продолжительность : 1 ч. 50 м.
Вид битрейта : Постоянный
Битрейт : 448 Кбит/сек
Каналы : 6 каналов
Расположение каналов : Front: L C R, Side: L R, LFE
Частота : 48,0 КГц
Битовая глубина : 16 бит
Метод сжатия : С потерями
Размер потока : 353 Мбайт (2%)
Заголовок : MVO Premer Video
Язык : Russian
Default : Нет
Forced : Нет

Аудио #5
Идентификатор : 6
Формат : AC-3
Формат/Информация : Audio Coding 3
Расширение режима : CM (complete main)
Параметр Endianness формата : Big
Идентификатор кодека : A_AC3
Продолжительность : 1 ч. 50 м.
Вид битрейта : Постоянный
Битрейт : 192 Кбит/сек
Каналы : 2 канала
Расположение каналов : Front: L R
Частота : 48,0 КГц
Битовая глубина : 16 бит
Метод сжатия : С потерями
Размер потока : 151 Мбайт (1%)
Заголовок : MVO OPT
Язык : Russian
Default : Нет
Forced : Нет

Аудио #6
Идентификатор : 7
Формат : AC-3
Формат/Информация : Audio Coding 3
Расширение режима : CM (complete main)
Параметр Endianness формата : Big
Идентификатор кодека : A_AC3
Продолжительность : 1 ч. 50 м.
Вид битрейта : Постоянный
Битрейт : 192 Кбит/сек
Каналы : 2 канала
Расположение каналов : Front: L R
Частота : 48,0 КГц
Битовая глубина : 16 бит
Метод сжатия : С потерями
Размер потока : 151 Мбайт (1%)
Заголовок : MVO PTP
Язык : Russian
Default : Нет
Forced : Нет

Аудио #7
Идентификатор : 8
Формат : AC-3
Формат/Информация : Audio Coding 3
Расширение режима : CM (complete main)
Параметр Endianness формата : Big
Идентификатор кодека : A_AC3
Продолжительность : 1 ч. 50 м.
Вид битрейта : Постоянный
Битрейт : 448 Кбит/сек
Каналы : 6 каналов
Расположение каналов : Front: L C R, Side: L R, LFE
Частота : 48,0 КГц
Битовая глубина : 16 бит
Метод сжатия : С потерями
Размер потока : 353 Мбайт (2%)
Заголовок : AVO Gavrilov
Язык : Russian
Default : Нет
Forced : Нет

Аудио #8
Идентификатор : 9
Формат : AC-3
Формат/Информация : Audio Coding 3
Расширение режима : CM (complete main)
Параметр Endianness формата : Big
Идентификатор кодека : A_AC3
Продолжительность : 1 ч. 50 м.
Вид битрейта : Постоянный
Битрейт : 448 Кбит/сек
Каналы : 6 каналов
Расположение каналов : Front: L C R, Side: L R, LFE
Частота : 48,0 КГц
Битовая глубина : 16 бит
Метод сжатия : С потерями
Размер потока : 353 Мбайт (2%)
Заголовок : AVO Gavrilov pozd
Язык : Russian
Default : Нет
Forced : Нет

Аудио #9
Идентификатор : 10
Формат : AC-3
Формат/Информация : Audio Coding 3
Расширение режима : CM (complete main)
Параметр Endianness формата : Big
Идентификатор кодека : A_AC3
Продолжительность : 1 ч. 50 м.
Вид битрейта : Постоянный
Битрейт : 448 Кбит/сек
Каналы : 6 каналов
Расположение каналов : Front: L C R, Side: L R, LFE
Частота : 48,0 КГц
Битовая глубина : 16 бит
Метод сжатия : С потерями
Размер потока : 353 Мбайт (2%)
Заголовок : AVO Zhivov
Язык : Russian
Default : Нет
Forced : Нет

Аудио #10
Идентификатор : 11
Формат : AC-3
Формат/Информация : Audio Coding 3
Расширение режима : CM (complete main)
Параметр Endianness формата : Big
Идентификатор кодека : A_AC3
Продолжительность : 1 ч. 50 м.
Вид битрейта : Постоянный
Битрейт : 448 Кбит/сек
Каналы : 6 каналов
Расположение каналов : Front: L C R, Side: L R, LFE
Частота : 48,0 КГц
Битовая глубина : 16 бит
Метод сжатия : С потерями
Размер потока : 353 Мбайт (2%)
Заголовок : AVO Mixalev
Язык : Russian
Default : Нет
Forced : Нет

Аудио #11
Идентификатор : 12
Формат : AC-3
Формат/Информация : Audio Coding 3
Расширение режима : CM (complete main)
Параметр Endianness формата : Big
Идентификатор кодека : A_AC3
Продолжительность : 1 ч. 50 м.
Вид битрейта : Постоянный
Битрейт : 448 Кбит/сек
Каналы : 6 каналов
Расположение каналов : Front: L C R, Side: L R, LFE
Частота : 48,0 КГц
Битовая глубина : 16 бит
Метод сжатия : С потерями
Размер потока : 353 Мбайт (2%)
Заголовок : AVO Volodarskiy
Язык : Russian
Default : Нет
Forced : Нет

Аудио #12
Идентификатор : 13
Формат : DTS
Формат/Информация : Digital Theater Systems
Идентификатор кодека : A_DTS
Продолжительность : 1 ч. 50 м.
Вид битрейта : Постоянный
Битрейт : 1510 Кбит/сек
Каналы : 6 каналов
Расположение каналов : Front: L C R, Side: L R, LFE
Частота : 48,0 КГц
Битовая глубина : 24 бит
Метод сжатия : С потерями
Размер потока : 1,16 Гбайт (8%)
Заголовок : AVO Gorchakov
Язык : Russian
Default : Нет
Forced : Нет

Аудио #13
Идентификатор : 14
Формат : AC-3
Формат/Информация : Audio Coding 3
Расширение режима : CM (complete main)
Параметр Endianness формата : Big
Идентификатор кодека : A_AC3
Продолжительность : 1 ч. 50 м.
Вид битрейта : Постоянный
Битрейт : 448 Кбит/сек
Каналы : 6 каналов
Расположение каналов : Front: L C R, Side: L R, LFE
Частота : 48,0 КГц
Битовая глубина : 16 бит
Метод сжатия : С потерями
Размер потока : 353 Мбайт (2%)
Заголовок : AVO Libergal
Язык : Russian
Default : Нет
Forced : Нет

Аудио #14
Идентификатор : 15
Формат : DTS
Формат/Информация : Digital Theater Systems
Идентификатор кодека : A_DTS
Продолжительность : 1 ч. 50 м.
Вид битрейта : Постоянный
Битрейт : 1510 Кбит/сек
Каналы : 6 каналов
Расположение каналов : Front: L C R, Side: L R, LFE
Частота : 48,0 КГц
Битовая глубина : 16 бит
Метод сжатия : С потерями
Размер потока : 1,16 Гбайт (8%)
Язык : English
Default : Нет
Forced : Нет

Текст #1
Идентификатор : 16
Формат : UTF-8
Идентификатор кодека : S_TEXT/UTF8
Идентификатор кодека/Информация : UTF-8 Plain Text
Язык : Russian
Default : Да
Forced : Нет

Текст #2
Идентификатор : 17
Формат : UTF-8
Идентификатор кодека : S_TEXT/UTF8
Идентификатор кодека/Информация : UTF-8 Plain Text
Язык : English
Default : Нет
Forced : Нет

Меню
00:00:00.000 : :Chapter 01
00:04:26.099 : :Chapter 02
00:11:13.839 : :Chapter 03
00:14:53.601 : :Chapter 04
00:18:13.300 : :Chapter 05
00:23:05.008 : :Chapter 06
00:25:58.390 : :Chapter 07
00:28:36.047 : :Chapter 08
00:36:45.786 : :Chapter 09
00:42:59.577 : :Chapter 10
00:54:12.707 : :Chapter 11
00:57:39.205 : :Chapter 12
01:03:44.237 : :Chapter 13
01:08:10.294 : :Chapter 14
01:10:25.930 : :Chapter 15
01:15:17.513 : :Chapter 16
01:23:47.522 : :Chapter 17
01:29:30.365 : :Chapter 18
01:36:55.476 : :Chapter 19
01:38:54.929 : :Chapter 20
01:43:03.010 : :Chapter 21
01:43:48.222 : :Chapter 22
01:44:45.904 : :Chapter 23
Свернуть
Скриншоты
Изображение

Изображение

Изображение

Изображение
Свернуть
Свернуть

Смертельное оружие 2/ Lethal Weapon 2
Смертельное оружие 2/ Lethal Weapon 2
«Je conduis. Non, je conduis.»

Изображение


Год выпуска: 1989
Страна: США
Жанр: боевик, триллер, комедия, криминал
Продолжительность: 01:54:27
Перевод: Профессиональный (дублированный) - Blu-Ray CEE
Перевод 2: Профессиональный (дублированный) - Варус Видео
Перевод 3: Профессиональный (многоголосый) - Киномания
Перевод 4: Профессиональный (многоголосый) - Премьер Видео
Перевод 5: Профессиональный (многоголосый) - ОРТ
Перевод 6: Профессиональный (многоголосый) - РТР
Перевод 7: Профессиональный (многоголосый) - НТВ
Перевод 8: Авторский одноголосый - Гаврилов
Перевод 9: Авторский одноголосый - Живов
Перевод 10: Авторский одноголосый - Михалёв
Перевод 11: Авторский одноголосый - Володарский
Оригинальная аудиодорожка: Английский

Режиссёр: Ричард Доннер
В ролях: Мэл Гибсон, Дэнни Гловер, Джо Пеши, Джосс Экленд, Деррик О’Коннор, Пэтси Кензит, Дарлен Лав, Трэйси Вульф, Стив Кэхэн, Марк Ролстон
Описание: Зрителя вновь ждет встреча с неустанно сражающейся с преступниками парочкой друзей-полицейских (Мел Гибсон и Дэнни Гловер). Спасая собственную жизнь и жизнь главного свидетеля (Джо Пеши), они вынуждены схватиться с шайкой южноафриканских контрабандистов.

Раздача группы: Изображение

Качество: BDRip, 1080p
Формат: MKV
Видео кодек: H.264
Аудио кодек: AC3 (Dolby Digital)
Видео: MPEG-4 AVC, 10,2 Мбит/с, 1920x800, 23,976 fps
Аудио: АС3, 48 КГц, 6 ch, 640 Кбит/с - Blu-Ray CEE
Аудио 2: АС3, 48 КГц, 2 ch, 192 Кбит/с - Варус Видео
Аудио 3: АС3, 48 КГц, 6 ch, 384 Кбит/с - Киномания
Аудио 4: АС3, 48 КГц, 6 ch, 448 Кбит/с - Премьер Видео
Аудио 5: АС3, 48 КГц, 2 ch, 192 Кбит/с - ОРТ
Аудио 6: АС3, 48 КГц, 2 ch, 192 Кбит/с - РТР
Аудио 7: АС3, 48 КГц, 2 ch, 192 Кбит/с - НТВ
Аудио 8: АС3, 48 КГц, 6 ch, 448 Кбит/с - Гаврилов
Аудио 9: DTS, 48 КГц, 6 ch, 1510 Кбит/с - Живов
Аудио 10: АС3, 48 КГц, 6 ch, 448 Кбит/с - Михалёв
Аудио 11: АС3, 48 КГц, 2 ch, 192 Кбит/с - Володарский
Аудио 12: DTS, 48 КГц, 6 ch, 1510 Кбит/с - Оригинал
Субтитры: Русские, Английские

Знаете ли вы, что...
• Пока семья Мёрто ждет тот самый рекламный ролик, они смотрят «Байки из склепа» (1989), эпизод 1.2 «And All Through The House», премьера которого состоялась 10 июня 1989 года, и где сыграла Мэри Эллен Трэйнор, исполнившая роль доктора Стефании Вудс. Вдобавок, несколько эпизодов «Баек из склепа» были спродюсированы Ричардом Доннером, поставившим данный фильм.
• Имя плотника – МакДжи. Это – настоящее имя актера, сыгравшего данный персонаж (Джек МакДжи).
• Название одеколона, флакон которого разбивается вдребезги во время разрушения трейлера Риггза, - «Hero». В первый раз, когда мы видим Риггза, входящего в свой дом на колесах, можно заметить, что по телевизору идет реклама данного одеколона.
• В сцене, где Лео убирается в доме Риггза, играет песня «I'm Not Scared» британской поп-группы «Eighth Wonder», участницей которой была Пэнси Кенсит, сыгравшая Рику Ван Хаас.
• Коронная фраза Лео «окей-окей-окей» была основана на манере разговора сотрудников парков развлечений «Disneyland», когда они объясняли дорогу к «Fantasyland».
• Изначально Лео должен был быть льстивым и изнеженным персонажам, но Джо Пеши не хотел играть его в такой манере. Он предложил, чтобы Лео был человеком, который слишком старается понравиться всем и каждому.
• Изначально Риггз должен был погибнуть в финальной сцене фильма, но продюсеры решили оставить его в живых, для того чтобы была возможность снять продолжение.
• Сцена разрушения дома на опорах обошлась создателям фильма в более чем $500,000.
• Альтернативный финал фильма: ужин на День благодарения в доме Мёрто, где также присутствуют Риггз и Рика Ван Хаас.
• Количество убитых: 33.
• Режиссёрская версия имеет хронометраж 118 минут.
Свернуть
MediaInfo
Общее
Уникальный идентификатор : 170614402686257807185852199244707138977 (0x805B23825963A9D1A0E363803D440DA1)
Полное имя : Z:\WWW\TR-Downloads\Smertelnoe.oruzhie.Quadrology.1080p[R.G.Daredevil]\Smertelnoe.oruzhie.2.1989.1080p.mkv
Формат : Matroska
Версия формата : Version 2
Размер файла : 13,5 Гбайт
Продолжительность : 1 ч. 54 м.
Общий поток : 16,9 Мбит/сек
Название фильма : Smertelnoe.oruzhie.2.1989.x264.BDRip.1080p.Troyanec27
Дата кодирования : UTC 2010-12-01 16:23:40
Программа кодирования : mkvmerge v3.4.0 ('Rapunzel') сборка от May 15 2010 09:38:20
Библиотека кодирования : libebml v0.8.0 + libmatroska v0.9.0

Видео
Идентификатор : 1
Формат : AVC
Формат/Информация : Advanced Video Codec
Профиль формата : High@L4.1
Параметр CABAC формата : Да
Параметр ReFrames формата : 4 кадра
Идентификатор кодека : V_MPEG4/ISO/AVC
Продолжительность : 1 ч. 54 м.
Битрейт : 10,6 Мбит/сек
Ширина : 1920 пикселей
Высота : 800 пикселей
Соотношение сторон : 2,40:1
Частота кадров : 23,976 кадра/сек
Цветовое пространство : YUV
Субдискретизация насыщенности : 4:2:0
Битовая глубина : 8 бит
Тип развёртки : Прогрессивная
Бит/(Пиксели*Кадры) : 0.287
Размер потока : 8,18 Гбайт (61%)
Библиотека кодирования : x264 core 107 r1766 f9f0035
Настройки программы : cabac=1 / ref=4 / deblock=1:-3:-3 / analyse=0x3:0x133 / me=umh / subme=10 / psy=1 / psy_rd=1.00:0.00 / mixed_ref=1 / me_range=64 / chroma_me=1 / trellis=2 / 8x8dct=1 / cqm=0 / deadzone=21,11 / fast_pskip=0 / chroma_qp_offset=-2 / threads=6 / sliced_threads=0 / nr=0 / decimate=0 / interlaced=0 / constrained_intra=0 / bframes=10 / b_pyramid=2 / b_adapt=2 / b_bias=0 / direct=3 / weightb=1 / open_gop=0 / weightp=2 / keyint=250 / keyint_min=23 / scenecut=40 / intra_refresh=0 / rc_lookahead=60 / rc=2pass / mbtree=1 / bitrate=10578 / ratetol=1.0 / qcomp=0.60 / qpmin=10 / qpmax=51 / qpstep=4 / cplxblur=20.0 / qblur=0.5 / ip_ratio=1.40 / aq=1:1.00
Язык : English
Default : Нет
Forced : Нет

Аудио #1
Идентификатор : 2
Формат : AC-3
Формат/Информация : Audio Coding 3
Расширение режима : CM (complete main)
Параметр Endianness формата : Big
Идентификатор кодека : A_AC3
Продолжительность : 1 ч. 54 м.
Вид битрейта : Постоянный
Битрейт : 640 Кбит/сек
Каналы : 6 каналов
Расположение каналов : Front: L C R, Side: L R, LFE
Частота : 48,0 КГц
Битовая глубина : 16 бит
Метод сжатия : С потерями
Размер потока : 524 Мбайт (4%)
Заголовок : DUB CEE
Язык : Russian
Default : Да
Forced : Нет

Аудио #2
Идентификатор : 3
Формат : AC-3
Формат/Информация : Audio Coding 3
Расширение режима : CM (complete main)
Параметр Endianness формата : Big
Идентификатор кодека : A_AC3
Продолжительность : 1 ч. 54 м.
Вид битрейта : Постоянный
Битрейт : 192 Кбит/сек
Каналы : 2 канала
Расположение каналов : Front: L R
Частота : 48,0 КГц
Битовая глубина : 16 бит
Метод сжатия : С потерями
Размер потока : 157 Мбайт (1%)
Заголовок : DUB Varus
Язык : Russian
Default : Нет
Forced : Нет

Аудио #3
Идентификатор : 4
Формат : AC-3
Формат/Информация : Audio Coding 3
Расширение режима : CM (complete main)
Параметр Endianness формата : Big
Идентификатор кодека : A_AC3
Продолжительность : 1 ч. 54 м.
Вид битрейта : Постоянный
Битрейт : 384 Кбит/сек
Каналы : 6 каналов
Расположение каналов : Front: L C R, Side: L R, LFE
Частота : 48,0 КГц
Битовая глубина : 16 бит
Метод сжатия : С потерями
Размер потока : 314 Мбайт (2%)
Заголовок : MVO Kinomaniya
Язык : Russian
Default : Нет
Forced : Нет

Аудио #4
Идентификатор : 5
Формат : AC-3
Формат/Информация : Audio Coding 3
Расширение режима : CM (complete main)
Параметр Endianness формата : Big
Идентификатор кодека : A_AC3
Продолжительность : 1 ч. 54 м.
Вид битрейта : Постоянный
Битрейт : 448 Кбит/сек
Каналы : 6 каналов
Расположение каналов : Front: L C R, Side: L R, LFE
Частота : 48,0 КГц
Битовая глубина : 16 бит
Метод сжатия : С потерями
Размер потока : 367 Мбайт (3%)
Заголовок : MVO Premer Video
Язык : Russian
Default : Нет
Forced : Нет

Аудио #5
Идентификатор : 6
Формат : AC-3
Формат/Информация : Audio Coding 3
Расширение режима : CM (complete main)
Параметр Endianness формата : Big
Идентификатор кодека : A_AC3
Продолжительность : 1 ч. 54 м.
Вид битрейта : Постоянный
Битрейт : 192 Кбит/сек
Каналы : 2 канала
Расположение каналов : Front: L R
Частота : 48,0 КГц
Битовая глубина : 16 бит
Метод сжатия : С потерями
Размер потока : 157 Мбайт (1%)
Заголовок : MVO OPT
Язык : Russian
Default : Нет
Forced : Нет

Аудио #6
Идентификатор : 7
Формат : AC-3
Формат/Информация : Audio Coding 3
Расширение режима : CM (complete main)
Параметр Endianness формата : Big
Идентификатор кодека : A_AC3
Продолжительность : 1 ч. 54 м.
Вид битрейта : Постоянный
Битрейт : 192 Кбит/сек
Каналы : 2 канала
Расположение каналов : Front: L R
Частота : 48,0 КГц
Битовая глубина : 16 бит
Метод сжатия : С потерями
Размер потока : 157 Мбайт (1%)
Заголовок : MVO PTP
Язык : Russian
Default : Нет
Forced : Нет

Аудио #7
Идентификатор : 8
Формат : AC-3
Формат/Информация : Audio Coding 3
Расширение режима : CM (complete main)
Параметр Endianness формата : Big
Идентификатор кодека : A_AC3
Продолжительность : 1 ч. 54 м.
Вид битрейта : Постоянный
Битрейт : 192 Кбит/сек
Каналы : 2 канала
Расположение каналов : Front: L R
Частота : 48,0 КГц
Битовая глубина : 16 бит
Метод сжатия : С потерями
Размер потока : 157 Мбайт (1%)
Заголовок : MVO HTB
Язык : Russian
Default : Нет
Forced : Нет

Аудио #8
Идентификатор : 9
Формат : AC-3
Формат/Информация : Audio Coding 3
Расширение режима : CM (complete main)
Параметр Endianness формата : Big
Идентификатор кодека : A_AC3
Продолжительность : 1 ч. 54 м.
Вид битрейта : Постоянный
Битрейт : 448 Кбит/сек
Каналы : 6 каналов
Расположение каналов : Front: L C R, Side: L R, LFE
Частота : 48,0 КГц
Битовая глубина : 16 бит
Метод сжатия : С потерями
Размер потока : 367 Мбайт (3%)
Заголовок : AVO Gavrilov
Язык : Russian
Default : Нет
Forced : Нет

Аудио #9
Идентификатор : 10
Формат : DTS
Формат/Информация : Digital Theater Systems
Идентификатор кодека : A_DTS
Продолжительность : 1 ч. 54 м.
Вид битрейта : Постоянный
Битрейт : 1510 Кбит/сек
Каналы : 6 каналов
Расположение каналов : Front: L C R, Side: L R, LFE
Частота : 48,0 КГц
Битовая глубина : 24 бит
Метод сжатия : С потерями
Размер потока : 1,21 Гбайт (9%)
Заголовок : AVO Zhivov
Язык : Russian
Default : Нет
Forced : Нет

Аудио #10
Идентификатор : 11
Формат : AC-3
Формат/Информация : Audio Coding 3
Расширение режима : CM (complete main)
Параметр Endianness формата : Big
Идентификатор кодека : A_AC3
Продолжительность : 1 ч. 54 м.
Вид битрейта : Постоянный
Битрейт : 448 Кбит/сек
Каналы : 6 каналов
Расположение каналов : Front: L C R, Side: L R, LFE
Частота : 48,0 КГц
Битовая глубина : 16 бит
Метод сжатия : С потерями
Размер потока : 367 Мбайт (3%)
Заголовок : AVO Mixalev
Язык : Russian
Default : Нет
Forced : Нет

Аудио #11
Идентификатор : 12
Формат : AC-3
Формат/Информация : Audio Coding 3
Расширение режима : CM (complete main)
Параметр Endianness формата : Big
Идентификатор кодека : A_AC3
Продолжительность : 1 ч. 54 м.
Вид битрейта : Постоянный
Битрейт : 192 Кбит/сек
Каналы : 2 канала
Расположение каналов : Front: L R
Частота : 48,0 КГц
Битовая глубина : 16 бит
Метод сжатия : С потерями
Размер потока : 157 Мбайт (1%)
Заголовок : AVO Volodarskiy
Язык : Russian
Default : Нет
Forced : Нет

Аудио #12
Идентификатор : 13
Формат : DTS
Формат/Информация : Digital Theater Systems
Идентификатор кодека : A_DTS
Продолжительность : 1 ч. 54 м.
Вид битрейта : Постоянный
Битрейт : 1510 Кбит/сек
Каналы : 6 каналов
Расположение каналов : Front: L C R, Side: L R, LFE
Частота : 48,0 КГц
Битовая глубина : 16 бит
Метод сжатия : С потерями
Размер потока : 1,21 Гбайт (9%)
Язык : English
Default : Нет
Forced : Нет

Текст #1
Идентификатор : 14
Формат : UTF-8
Идентификатор кодека : S_TEXT/UTF8
Идентификатор кодека/Информация : UTF-8 Plain Text
Язык : Russian
Default : Да
Forced : Нет

Текст #2
Идентификатор : 15
Формат : UTF-8
Идентификатор кодека : S_TEXT/UTF8
Идентификатор кодека/Информация : UTF-8 Plain Text
Язык : English
Default : Нет
Forced : Нет

Меню
00:00:00.000 : :Chapter 01
00:07:51.387 : :Chapter 02
00:10:00.266 : :Chapter 03
00:11:20.262 : :Chapter 04
00:12:58.903 : :Chapter 05
00:16:26.110 : :Chapter 06
00:18:21.141 : :Chapter 07
00:21:42.009 : :Chapter 08
00:23:42.003 : :Chapter 09
00:25:56.846 : :Chapter 10
00:30:25.156 : :Chapter 11
00:33:51.821 : :Chapter 12
00:35:59.448 : :Chapter 13
00:39:39.794 : :Chapter 14
00:42:38.430 : :Chapter 15
00:43:58.927 : :Chapter 16
00:45:34.064 : :Chapter 17
00:47:12.120 : :Chapter 18
00:48:32.409 : :Chapter 19
00:50:32.404 : :Chapter 20
00:51:44.476 : :Chapter 21
00:55:07.220 : :Chapter 22
01:00:13.526 : :Chapter 23
01:06:37.410 : :Chapter 24
01:07:56.489 : :Chapter 25
01:12:04.111 : :Chapter 26
01:15:03.540 : :Chapter 27
01:19:24.926 : :Chapter 28
01:24:13.214 : :Chapter 29
01:26:41.029 : :Chapter 30
01:28:06.364 : :Chapter 31
01:30:30.007 : :Chapter 32
01:33:54.629 : :Chapter 33
01:37:22.086 : :Chapter 34
01:41:08.520 : :Chapter 35
01:43:15.147 : :Chapter 36
01:45:36.121 : :Chapter 37
01:46:36.598 : :Chapter 38
01:49:30.188 : :Chapter 39
Свернуть
Скриншоты
Изображение

Изображение

Изображение

Изображение
Свернуть
Свернуть

Смертельное оружие 3/ Lethal Weapon 3
Смертельное оружие 3/ Lethal Weapon 3
«The magic is back again!»

Изображение


Год выпуска: 1992
Страна: США
Жанр: боевик, триллер, комедия, криминал
Продолжительность: 01:57:53
Перевод: Профессиональный (дублированный) - Blu-Ray CEE
Перевод 2: Профессиональный (дублированный) - Варус Видео
Перевод 3: Профессиональный (многоголосый) - Киномания
Перевод 4: Профессиональный (многоголосый) - РТР
Перевод 5: Профессиональный (многоголосый) - НТВ
Перевод 6: Авторский одноголосый - Гаврилов
Оригинальная аудиодорожка: Английский

Режиссёр: Ричард Доннер
В ролях: Мэл Гибсон, Дэнни Гловер, Джо Пеши, Рене Руссо, Стюарт Уилсон, Стив Кэхэн
Описание: Третий фильм о неустрашимом полицейском Риггсе. На этот раз Мартин и его напарник Роджер сталкиваются с гангстерами, похищающими оружие со склада полиции. Преступную группу, за которой тянется длинный кровавый след, возглавляет бывший сержант Джек Тревис. Найти улики против «грязного» полицейского напарникам помогает Лорна Коул — решительная женщина-полицейский, которая не останавливается перед лицом опасности и уверенно вступает в схватку с противниками...

Раздача группы: Изображение

Качество: BDRip, 1080p
Формат: MKV
Видео кодек: H.264
Аудио кодек: AC3 (Dolby Digital)
Видео: MPEG-4 AVC, 9987 Мбит/с, 1920x796, 23,976 fps
Аудио: АС3, 48 КГц, 6 ch, 640 Кбит/с - Blu-Ray CEE
Аудио 2: АС3, 48 КГц, 2 ch, 192 Кбит/с - Варус Видео
Аудио 3: АС3, 48 КГц, 6 ch, 384 Кбит/с - Киномания
Аудио 4: АС3, 48 КГц, 2 ch, 192 Кбит/с - РТР
Аудио 5: АС3, 48 КГц, 2 ch, 192 Кбит/с - НТВ
Аудио 6: DTS, 48 КГц, 6 ch, 1510 Кбит/с - Гаврилов
Аудио 7: DTS, 48 КГц, 6 ch, 1510 Кбит/с - Оригинал
Субтитры: Русские, Английские

Знаете ли вы, что...
• Мёрто и Риггз проезжают кинотеатр, где идет фильм «Реклама на радио» (1992), режиссером которого был Ричард Доннер.
• Риггз (Мэл Гибсон) ест собачьи печенья, для того чтобы бросить курить. В «Безумном максе 2» (1981) персонаж Мэла питается собачьими консервами, для того чтобы выжить.
• Во время погони за инкассаторским автомобилем Делорес восклицает, что он – Воин дороги. Американское название «Безумного Макса 2» (1981), где главную роль сыграл Мэл Гибсон, - «Воин дороги».
• Досмотрите заключительные титры до конца, т.к. после них следует небольшая сцена.
• Лодка Мёрто называется «Код 7», что является условным кодом полиции Лос-Анджелеса для перерыва на обед.
• Это – единственный фильм в данном киносериале, где злодеи не угрожали семье Мёрто.
• Во время сцены, где Риггз и Лорна сравнивают шрамы, множество шрамов, полученных Риггзом, приходятся на события в «Смертельном оружии 2» (1989), в частности шрам от пулевого ранения в легкое и шрам от удара ножом в ногу.
• Когда в начале фильма здание взлетает на воздух, то рёв, который слышит зритель, также был использован в «Кинг Конге» (1976).
• Количество убитых: 17.
• Кэрри Фишер доводила сценарий до ума, но её имя не упоминается в титрах.
• Билл Фредерик, мэр Орландо, сыграл полицейского, который говорит «Браво!», обращаясь к Мёрто и Риггзу после взрыва здания.
• Джоэль Сильвер заплатил $165,000 за разрешение на снос здания.
• Из-за кассового успеха фильма студия «Warner Brothers» подарила Мэлу Гибсону, Дэнни Гловеру, Джо Пеши, Рене Руссо, Джоэлю Сильверу, Ричарду Доннеру и Джеффри Боуму по новому джипу «Range Rover».
• Режиссёрская версия фильма имеет хронометраж 121 минута.
• Здание, которое по ошибке взрывают Риггс и Мёрто, взрывается на самом деле. Это здание мэрии в Орландо, предназначавшееся под снос. Взрывотехники взорвали здание, съёмочная группа засняла процесс во всех подробностях с множества ракурсов. А Гибсон и Гловер безо всяких дублёров по настоящему убегали от настоящего взрыва. Позднее, участники всех четырёх фильмов назовут этот взрыв лучшим из всех, которые им пришлось снять.
Свернуть
MediaInfo
Общее
Уникальный идентификатор : 177305949431356128319834193664205317077 (0x8563E23C4FD54FA8BC277ADC6672E3D5)
Полное имя : Z:\WWW\TR-Downloads\Smertelnoe.oruzhie.Quadrology.1080p[R.G.Daredevil]\Smertelnoe.oruzhie.3.1992.1080p.mkv
Формат : Matroska
Версия формата : Version 2
Размер файла : 12,3 Гбайт
Продолжительность : 1 ч. 57 м.
Общий поток : 14,9 Мбит/сек
Название фильма : Smertelnoe.oruzhie.3.1992.x264.BDRip.1080p.Troyanec27
Дата кодирования : UTC 2010-12-01 16:43:53
Программа кодирования : mkvmerge v3.4.0 ('Rapunzel') сборка от May 15 2010 09:38:20
Библиотека кодирования : libebml v0.8.0 + libmatroska v0.9.0

Видео
Идентификатор : 1
Формат : AVC
Формат/Информация : Advanced Video Codec
Профиль формата : High@L4.1
Параметр CABAC формата : Да
Параметр ReFrames формата : 4 кадра
Идентификатор кодека : V_MPEG4/ISO/AVC
Продолжительность : 1 ч. 57 м.
Битрейт : 10,3 Мбит/сек
Ширина : 1920 пикселей
Высота : 796 пикселей
Соотношение сторон : 2,40:1
Частота кадров : 23,976 кадра/сек
Цветовое пространство : YUV
Субдискретизация насыщенности : 4:2:0
Битовая глубина : 8 бит
Тип развёртки : Прогрессивная
Бит/(Пиксели*Кадры) : 0.281
Размер потока : 8,23 Гбайт (67%)
Библиотека кодирования : x264 core 107 r1766 f9f0035
Настройки программы : cabac=1 / ref=4 / deblock=1:-3:-3 / analyse=0x3:0x133 / me=umh / subme=10 / psy=1 / psy_rd=1.00:0.00 / mixed_ref=1 / me_range=64 / chroma_me=1 / trellis=2 / 8x8dct=1 / cqm=0 / deadzone=21,11 / fast_pskip=0 / chroma_qp_offset=-2 / threads=6 / sliced_threads=0 / nr=0 / decimate=0 / interlaced=0 / constrained_intra=0 / bframes=10 / b_pyramid=2 / b_adapt=2 / b_bias=0 / direct=3 / weightb=1 / open_gop=0 / weightp=2 / keyint=250 / keyint_min=23 / scenecut=40 / intra_refresh=0 / rc_lookahead=60 / rc=2pass / mbtree=1 / bitrate=10288 / ratetol=1.0 / qcomp=0.60 / qpmin=10 / qpmax=51 / qpstep=4 / cplxblur=20.0 / qblur=0.5 / ip_ratio=1.40 / aq=1:1.00
Язык : English
Default : Нет
Forced : Нет

Аудио #1
Идентификатор : 2
Формат : AC-3
Формат/Информация : Audio Coding 3
Расширение режима : CM (complete main)
Параметр Endianness формата : Big
Идентификатор кодека : A_AC3
Продолжительность : 1 ч. 57 м.
Вид битрейта : Постоянный
Битрейт : 640 Кбит/сек
Каналы : 6 каналов
Расположение каналов : Front: L C R, Side: L R, LFE
Частота : 48,0 КГц
Битовая глубина : 16 бит
Метод сжатия : С потерями
Размер потока : 540 Мбайт (4%)
Заголовок : DUB CEE
Язык : Russian
Default : Да
Forced : Нет

Аудио #2
Идентификатор : 3
Формат : AC-3
Формат/Информация : Audio Coding 3
Расширение режима : CM (complete main)
Параметр Endianness формата : Big
Идентификатор кодека : A_AC3
Продолжительность : 1 ч. 57 м.
Вид битрейта : Постоянный
Битрейт : 192 Кбит/сек
Каналы : 2 канала
Расположение каналов : Front: L R
Частота : 48,0 КГц
Битовая глубина : 16 бит
Метод сжатия : С потерями
Размер потока : 162 Мбайт (1%)
Заголовок : DUB Varus
Язык : Russian
Default : Нет
Forced : Нет

Аудио #3
Идентификатор : 4
Формат : AC-3
Формат/Информация : Audio Coding 3
Расширение режима : CM (complete main)
Параметр Endianness формата : Big
Идентификатор кодека : A_AC3
Продолжительность : 1 ч. 57 м.
Вид битрейта : Постоянный
Битрейт : 384 Кбит/сек
Каналы : 6 каналов
Расположение каналов : Front: L C R, Side: L R, LFE
Частота : 48,0 КГц
Битовая глубина : 16 бит
Метод сжатия : С потерями
Размер потока : 324 Мбайт (3%)
Заголовок : MVO Kinomaniya
Язык : Russian
Default : Нет
Forced : Нет

Аудио #4
Идентификатор : 5
Формат : AC-3
Формат/Информация : Audio Coding 3
Расширение режима : CM (complete main)
Параметр Endianness формата : Big
Идентификатор кодека : A_AC3
Продолжительность : 1 ч. 57 м.
Вид битрейта : Постоянный
Битрейт : 192 Кбит/сек
Каналы : 2 канала
Расположение каналов : Front: L R
Частота : 44,1 КГц
Битовая глубина : 16 бит
Метод сжатия : С потерями
Размер потока : 162 Мбайт (1%)
Заголовок : MVO PTP
Язык : Russian
Default : Нет
Forced : Нет

Аудио #5
Идентификатор : 6
Формат : AC-3
Формат/Информация : Audio Coding 3
Расширение режима : CM (complete main)
Параметр Endianness формата : Big
Идентификатор кодека : A_AC3
Продолжительность : 1 ч. 57 м.
Вид битрейта : Постоянный
Битрейт : 192 Кбит/сек
Каналы : 2 канала
Расположение каналов : Front: L R
Частота : 44,1 КГц
Битовая глубина : 16 бит
Метод сжатия : С потерями
Размер потока : 162 Мбайт (1%)
Заголовок : MVO HTB
Язык : Russian
Default : Нет
Forced : Нет

Аудио #6
Идентификатор : 7
Формат : DTS
Формат/Информация : Digital Theater Systems
Идентификатор кодека : A_DTS
Продолжительность : 1 ч. 57 м.
Вид битрейта : Постоянный
Битрейт : 1510 Кбит/сек
Каналы : 6 каналов
Расположение каналов : Front: L C R, Side: L R, LFE
Частота : 48,0 КГц
Битовая глубина : 24 бит
Метод сжатия : С потерями
Размер потока : 1,24 Гбайт (10%)
Заголовок : AVO Gavrilov
Язык : Russian
Default : Нет
Forced : Нет

Аудио #7
Идентификатор : 8
Формат : DTS
Формат/Информация : Digital Theater Systems
Идентификатор кодека : A_DTS
Продолжительность : 1 ч. 57 м.
Вид битрейта : Постоянный
Битрейт : 1510 Кбит/сек
Каналы : 6 каналов
Расположение каналов : Front: L C R, Side: L R, LFE
Частота : 48,0 КГц
Битовая глубина : 16 бит
Метод сжатия : С потерями
Размер потока : 1,24 Гбайт (10%)
Язык : English
Default : Нет
Forced : Нет

Текст #1
Идентификатор : 9
Формат : UTF-8
Идентификатор кодека : S_TEXT/UTF8
Идентификатор кодека/Информация : UTF-8 Plain Text
Язык : Russian
Default : Да
Forced : Нет

Текст #2
Идентификатор : 10
Формат : UTF-8
Идентификатор кодека : S_TEXT/UTF8
Идентификатор кодека/Информация : UTF-8 Plain Text
Язык : English
Default : Нет
Forced : Нет

Меню
00:00:00.000 : :Chapter 01
00:01:39.182 : :Chapter 02
00:07:48.676 : :Chapter 03
00:10:05.062 : :Chapter 04
00:15:11.744 : :Chapter 05
00:20:08.832 : :Chapter 06
00:22:06.450 : :Chapter 07
00:24:36.975 : :Chapter 08
00:29:16.421 : :Chapter 09
00:37:00.593 : :Chapter 10
00:43:34.028 : :Chapter 11
00:49:31.551 : :Chapter 12
00:53:44.262 : :Chapter 13
00:56:17.791 : :Chapter 14
00:58:06.483 : :Chapter 15
01:00:42.347 : :Chapter 16
01:05:49.111 : :Chapter 17
01:11:41.422 : :Chapter 18
01:14:59.745 : :Chapter 19
01:18:15.982 : :Chapter 20
01:22:29.361 : :Chapter 21
01:24:37.197 : :Chapter 22
01:27:21.945 : :Chapter 23
01:29:59.268 : :Chapter 24
01:34:44.178 : :Chapter 25
01:37:15.329 : :Chapter 26
01:42:34.606 : :Chapter 27
01:46:24.628 : :Chapter 28
01:48:26.458 : :Chapter 29
01:51:44.030 : :Chapter 30
01:57:05.018 : :Chapter 31
Свернуть
Скриншоты
Изображение

Изображение

Изображение

Изображение
Свернуть
Свернуть

Смертельное оружие 4/ Lethal Weapon 4
Смертельное оружие 4/ Lethal Weapon 4
«With 4 you get Kung Fu»

Изображение


Год выпуска: 1998
Страна: США
Жанр: боевик, триллер, комедия, криминал
Продолжительность:02:07:23
Перевод: Профессиональный (дублированный) - Blu-Ray CEE
Перевод 2: Профессиональный (дублированный) - Варус Видео
Перевод 3: Профессиональный (многоголосый) - Киномания
Перевод 4: Профессиональный (многоголосый) - РТР
Перевод 5: Авторский одноголосый - Гаврилов
Перевод 6: Авторский одноголосый - Живов
Оригинальная аудиодорожка: Английский

Режиссёр: Ричард Доннер
В ролях: Мэл Гибсон, Дэнни Гловер, Джо Пеши, Рене Руссо, Крис Рок, Джет Ли, Стив Кэхэн, Ким Чан, Дарлен Лав, Трэйси Вульф
Описание: Главный герой Риггз ждет, как он надеется, сына от Лорны Коул, а Роджер — внука. Оба уже ощущают возраст, им дали звания капитанов, но сердца их все еще молоды и без приключений не могут. В этом 4-м по счету фильме их дорожки случайно пересеклись с китайскими мафиози, печатающими фальшивые деньги. В фильме есть юмор, множество перестрелок, драк, погонь, головокружительных трюков. Взрываются бензовозы, машины, корабли садятся на мель, Джет Ли показывает свое мастерство в восточных единоборствах...

Раздача группы: Изображение

Качество: BDRip, 1080p
Формат: MKV
Видео кодек: H.264
Аудио кодек: AC3 (Dolby Digital)
Видео: MPEG-4 AVC, 10,3 Мбит/с, 1920x800, 23,976 fps
Аудио: АС3, 48 КГц, 6 ch, 640 Кбит/с - Blu-Ray CEE
Аудио 2: АС3, 48 КГц, 2 ch, 192 Кбит/с - Варус Видео
Аудио 3: АС3, 48 КГц, 6 ch, 384 Кбит/с - Киномания
Аудио 4: АС3, 48 КГц, 2 ch, 192 Кбит/с - РТР
Аудио 5: АС3, 48 КГц, 2 ch, 192 Кбит/с - Гаврилов
Аудио 6: DTS, 48 КГц, 6 ch, 1510 Кбит/с - Живов
Аудио 7: DTS, 48 КГц, 6 ch, 1510 Кбит/с - Оригинал
Субтитры: Русские, Английские

Знаете ли вы, что...
• Роль Джета Ли сначала предлагали Джеки Чану, но тот отказался, так как не хотел играть отрицательного героя.
• В сцене, где Риггз и Мёрто поздравляют друг друга с повышением, они несколько раз пожимают друг другу руки и отдают честь. Точно такая же сцена присутствует в «Вечно молодом» (1992) между Мэлом Гибсоном и Джорджем Вендтом.
• Ким Чан сыграл персонажа по имени дядя Бенни. Точно так же звали его героя в «Коррупционере» (1999).
• Одни и те же актеры сыграли детей Мёрто во всех частях «Смертельного оружия».
• Во всех частях «Смертельного оружия» сыграли следующие актеры: Мэл Гибсон (Риггз); Дэнни Гловер (Мёрто); Дарлен Лав (жена Мёрто); Трэйси Вульф, Дэймон Хайнс и Эбони Смит исполнили роли детей Мёрто; Стив Кэхэн (капитан Мерфи); Мари Эллен Трэйнор (доктор Вудс).
• Пол Тюрп сыграл во всех частях «Смертельного оружия», но он всегда появлялся в разных ролях. Он сыграл наемника в первой части, убийцу во второй, помощника № 3 в третьей, и пилота вертолета в четвертом фильме.
• Автомобильная погоня на шоссе и драка между Риггзом и китайцем снимались на шоссе 215 в Лас Вегасе.
• Съёмки фильма начались в январе, за семь месяцев до премьеры. Монтаж фильма занял около трех недель.
• Трейлер Риггза находится в том же самом месте, что и трейлер Джима Рокфорда в «The Rockford Files» (1974).
• Когда начались съёмки, сценарий фильма еще не был дописан.
• Фраза Роджера Мёрто (Дэнни Гловер) «Я слишком стар для этого дерьма!» произносится в каждой части «Смертельного оружия». Только в данном фильме её произносит Риггз в немного измененном варианте: «Мы не слишком стары для этого дерьма!».
• В телевизионных роликах, рекламирующих фильм, Крис Рок носил полицейскую форму и пародировал Риггза. В фильме мы ни разу не увидели его в полицейской форме. Однако на финальных титрах на одной из фотографий можно увидеть Криса, одетого в полицейскую форму.
• Количество убитых: 30.
Свернуть
MediaInfo
Общее
Уникальный идентификатор : 205006461444552705103575453267652907751 (0x9A3ACEEC0559C1E3A9FCB6CBEB2612E7)
Полное имя : Z:\WWW\TR-Downloads\Smertelnoe.oruzhie.Quadrology.1080p[R.G.Daredevil]\Smertelnoe.oruzhie.4.1998.1080p.mkv
Формат : Matroska
Версия формата : Version 2
Размер файла : 13,5 Гбайт
Продолжительность : 2 ч. 7 м.
Общий поток : 15,2 Мбит/сек
Название фильма : Smertelnoe.oruzhie.4.1998.x264.BDRip.1080p.Troyanec27
Дата кодирования : UTC 2010-12-01 16:49:00
Программа кодирования : mkvmerge v3.4.0 ('Rapunzel') сборка от May 15 2010 09:38:20
Библиотека кодирования : libebml v0.8.0 + libmatroska v0.9.0

Видео
Идентификатор : 1
Формат : AVC
Формат/Информация : Advanced Video Codec
Профиль формата : High@L4.1
Параметр CABAC формата : Да
Параметр ReFrames формата : 4 кадра
Идентификатор кодека : V_MPEG4/ISO/AVC
Продолжительность : 2 ч. 7 м.
Битрейт : 10,6 Мбит/сек
Ширина : 1920 пикселей
Высота : 800 пикселей
Соотношение сторон : 2,40:1
Частота кадров : 23,976 кадра/сек
Цветовое пространство : YUV
Субдискретизация насыщенности : 4:2:0
Битовая глубина : 8 бит
Тип развёртки : Прогрессивная
Бит/(Пиксели*Кадры) : 0.288
Размер потока : 9,16 Гбайт (68%)
Библиотека кодирования : x264 core 107 r1745+311 2317302
Настройки программы : cabac=1 / ref=4 / deblock=1:-3:-3 / analyse=0x3:0x133 / me=umh / subme=10 / psy=1 / fade_compensate=0.00 / psy_rd=1.00:0.00 / mixed_ref=1 / me_range=64 / chroma_me=1 / trellis=2 / 8x8dct=1 / cqm=0 / deadzone=21,11 / fast_pskip=0 / chroma_qp_offset=-2 / threads=12 / sliced_threads=0 / nr=0 / decimate=0 / interlaced=0 / constrained_intra=0 / fgo=0 / bframes=10 / b_pyramid=2 / b_adapt=2 / b_bias=0 / direct=3 / weightb=1 / open_gop=0 / weightp=2 / keyint=250 / keyint_min=23 / scenecut=40 / intra_refresh=0 / rc_lookahead=60 / rc=2pass / mbtree=1 / bitrate=10590 / ratetol=1.0 / qcomp=0.60 / qpmin=10 / qpmax=51 / qpstep=4 / cplxblur=20.0 / qblur=0.5 / ip_ratio=1.40 / aq=1:1.00
Язык : English
Default : Нет
Forced : Нет

Аудио #1
Идентификатор : 2
Формат : AC-3
Формат/Информация : Audio Coding 3
Расширение режима : CM (complete main)
Параметр Endianness формата : Big
Идентификатор кодека : A_AC3
Продолжительность : 2 ч. 7 м.
Вид битрейта : Постоянный
Битрейт : 640 Кбит/сек
Каналы : 6 каналов
Расположение каналов : Front: L C R, Side: L R, LFE
Частота : 48,0 КГц
Битовая глубина : 16 бит
Метод сжатия : С потерями
Размер потока : 583 Мбайт (4%)
Заголовок : DUB CEE
Язык : Russian
Default : Да
Forced : Нет

Аудио #2
Идентификатор : 3
Формат : AC-3
Формат/Информация : Audio Coding 3
Расширение режима : CM (complete main)
Параметр Endianness формата : Big
Идентификатор кодека : A_AC3
Продолжительность : 2 ч. 7 м.
Вид битрейта : Постоянный
Битрейт : 192 Кбит/сек
Каналы : 2 канала
Расположение каналов : Front: L R
Частота : 48,0 КГц
Битовая глубина : 16 бит
Метод сжатия : С потерями
Размер потока : 175 Мбайт (1%)
Заголовок : DUB Varus
Язык : Russian
Default : Нет
Forced : Нет

Аудио #3
Идентификатор : 4
Формат : AC-3
Формат/Информация : Audio Coding 3
Расширение режима : CM (complete main)
Параметр Endianness формата : Big
Идентификатор кодека : A_AC3
Продолжительность : 2 ч. 7 м.
Вид битрейта : Постоянный
Битрейт : 384 Кбит/сек
Каналы : 6 каналов
Расположение каналов : Front: L C R, Side: L R, LFE
Частота : 48,0 КГц
Битовая глубина : 16 бит
Метод сжатия : С потерями
Размер потока : 350 Мбайт (3%)
Заголовок : MVO Kinomaniya
Язык : Russian
Default : Нет
Forced : Нет

Аудио #4
Идентификатор : 5
Формат : AC-3
Формат/Информация : Audio Coding 3
Расширение режима : CM (complete main)
Параметр Endianness формата : Big
Идентификатор кодека : A_AC3
Продолжительность : 2 ч. 7 м.
Вид битрейта : Постоянный
Битрейт : 192 Кбит/сек
Каналы : 2 канала
Расположение каналов : Front: L R
Частота : 44,1 КГц
Битовая глубина : 16 бит
Метод сжатия : С потерями
Размер потока : 175 Мбайт (1%)
Заголовок : MVO PTP
Язык : Russian
Default : Нет
Forced : Нет

Аудио #5
Идентификатор : 6
Формат : AC-3
Формат/Информация : Audio Coding 3
Расширение режима : CM (complete main)
Параметр Endianness формата : Big
Идентификатор кодека : A_AC3
Продолжительность : 2 ч. 7 м.
Вид битрейта : Постоянный
Битрейт : 192 Кбит/сек
Каналы : 2 канала
Расположение каналов : Front: L R
Частота : 48,0 КГц
Битовая глубина : 16 бит
Метод сжатия : С потерями
Размер потока : 175 Мбайт (1%)
Заголовок : AVO Gavrilov
Язык : Russian
Default : Нет
Forced : Нет

Аудио #6
Идентификатор : 7
Формат : DTS
Формат/Информация : Digital Theater Systems
Идентификатор кодека : A_DTS
Продолжительность : 2 ч. 7 м.
Вид битрейта : Постоянный
Битрейт : 1510 Кбит/сек
Каналы : 6 каналов
Расположение каналов : Front: L C R, Side: L R, LFE
Частота : 48,0 КГц
Битовая глубина : 24 бит
Метод сжатия : С потерями
Размер потока : 1,34 Гбайт (10%)
Заголовок : AVO Zhivov
Язык : Russian
Default : Нет
Forced : Нет

Аудио #7
Идентификатор : 8
Формат : DTS
Формат/Информация : Digital Theater Systems
Идентификатор кодека : A_DTS
Продолжительность : 2 ч. 7 м.
Вид битрейта : Постоянный
Битрейт : 1510 Кбит/сек
Каналы : 6 каналов
Расположение каналов : Front: L C R, Side: L R, LFE
Частота : 48,0 КГц
Битовая глубина : 16 бит
Метод сжатия : С потерями
Размер потока : 1,34 Гбайт (10%)
Язык : English
Default : Нет
Forced : Нет

Текст #1
Идентификатор : 9
Формат : UTF-8
Идентификатор кодека : S_TEXT/UTF8
Идентификатор кодека/Информация : UTF-8 Plain Text
Язык : Russian
Default : Да
Forced : Нет

Текст #2
Идентификатор : 10
Формат : UTF-8
Идентификатор кодека : S_TEXT/UTF8
Идентификатор кодека/Информация : UTF-8 Plain Text
Default : Нет
Forced : Нет

Меню
00:00:00.000 : :Chapter 01
00:01:52.195 : :Chapter 02
00:03:51.606 : :Chapter 03
00:05:54.604 : :Chapter 04
00:09:47.587 : :Chapter 05
00:13:40.110 : :Chapter 06
00:15:31.931 : :Chapter 07
00:17:28.964 : :Chapter 08
00:20:32.439 : :Chapter 09
00:21:55.355 : :Chapter 10
00:25:28.109 : :Chapter 11
00:27:50.293 : :Chapter 12
00:32:20.480 : :Chapter 13
00:35:42.515 : :Chapter 14
00:38:17.962 : :Chapter 15
00:40:15.412 : :Chapter 16
00:43:04.123 : :Chapter 17
00:46:27.868 : :Chapter 18
00:49:28.507 : :Chapter 19
00:51:19.659 : :Chapter 20
00:52:14.965 : :Chapter 21
00:55:53.808 : :Chapter 22
00:58:45.396 : :Chapter 23
01:02:42.675 : :Chapter 24
01:06:32.780 : :Chapter 25
01:09:36.463 : :Chapter 26
01:11:34.206 : :Chapter 27
01:13:44.503 : :Chapter 28
01:15:37.449 : :Chapter 29
01:17:28.018 : :Chapter 30
01:20:01.505 : :Chapter 31
01:22:38.453 : :Chapter 32
01:27:29.202 : :Chapter 33
01:31:05.918 : :Chapter 34
01:33:03.035 : :Chapter 35
01:35:37.106 : :Chapter 36
01:38:03.919 : :Chapter 37
01:40:33.610 : :Chapter 38
01:43:51.475 : :Chapter 39
01:46:22.667 : :Chapter 40
01:47:29.985 : :Chapter 41
01:50:10.604 : :Chapter 42
01:53:53.368 : :Chapter 43
01:58:03.117 : :Chapter 44
02:00:15.208 : :Chapter 45
Свернуть
Скриншоты
Изображение

Изображение

Изображение

Изображение
Свернуть
Свернуть
Не в сети
Профиль  
 Добавлено: 2012-07-07 18:45 (спустя 4 часа)
Аватара пользователя
Стаж: 8 лет 2 месяца
Сообщений: 7
Огромный выбор озвучек, какая лучше?
Не в сети
Профиль  
 Добавлено: 2012-07-07 19:05 (спустя 19 минут)
Top-releaser
Аватара пользователя
Стаж: 6 лет 7 месяцев
Сообщений: 2078
Спасибок: 3230
Лайков: 9
Arrow_blood
не знаю, сам не смотрел еще :)
Не в сети
Профиль  
 Добавлено: 2012-07-08 16:49 (спустя 21 час)
Модератор
Аватара пользователя
Стаж: 6 лет 10 месяцев
Возраст: 33
Сообщений: 5908
Спасибок: 61255
Лайков: 3540
Круто, спасибо.
_________________
ИзображениеИзображение Изображение
Изображение
Не в сети
Профиль  
 Добавлено: 2012-07-16 12:25 (спустя 7 дней)
Аватара пользователя
Стаж: 7 лет 2 месяца
Возраст: 29
Сообщений: 73
Заценим!Спасибо
:men:
Не в сети
Профиль  
 Добавлено: 2015-11-11 11:48 (спустя 3 года 3 месяца)
Top-releaser
Аватара пользователя
Стаж: 7 лет 4 месяца
Возраст: 38
Сообщений: 5347
Спасибок: 10064
Лайков: 2936
Первые три части суперские, фильмы на все времена!
Не в сети
Профиль  
Начать новую темуОтветить на тему  [ Сообщений: 6 ] 
Вы не можете начинать темы
Вы не можете отвечать на сообщения
Вы не можете редактировать свои сообщения
Вы не можете удалять свои сообщения