Правила форума

  • В этом разделе создание новых тем Запрещено.
  • Для создания новых тем пользуйтесь Корневым разделом DVD и HD фильмы.
Начать новую темуОтветить на тему  [ Сообщений: 3 ] 
Торрент файл
Размер: 9.78 GB • Зарегистрирован: 5 лет 7 месяцев • Статус: Проверено
Скачан: 81 раз • Желающих скачать: 0 • Поблагодарили: 12 раз
 Раздают: 0  |  0 KB/s  ]   Качают: 0  |  0 KB/s  ] 
 Полного источника не было 3 года 2 месяца 
Сообщения
 Добавлено: 2011-04-29 22:29
Top-releaser
Аватара пользователя
Стаж: 7 лет 3 месяца
Возраст: 25
Сообщений: 1036
Спасибок: 2694
Лайков: 9
Снайпер 4 / Sniper: Reloaded

Изображение



Год выхода: 2011
Страна: Германия, ЮАР

Жанр: боевик, триллер, драма, военный
Продолжительность: 01:31:22
Перевод: Профессиональное (многоголосое) [лицензия]

Режиссер: Клаудио Фах
Сценарий: Джон Фазано, Росс Хелфорд, Майкл Фрост Бекнер
Продюсер: Лоренцо Сенаторе
Оператор: Марк Сэйфритц, Маркус Трампп
Композитор: Шэйн Банс, Maria Hofmeyer, Мария Шикер

В ролях: Билли Зейн, Ричард Саммел, Чед Коллинз, Патрик Листер, Анабель Райт, Конрад Кемп

Описание: При работе с ООН в Демократической Республике Конго сержант морской пехоты Брэндон Беккет, сын известного снайпера Томаса Беккета, получает приказ спасти европейских фермеров с захваченных территорий повстанцев. Когда он и его люди прибыли на ферму, то таинственный снайпер из засады их обстрелял, ранив Беккета и убив всех остальных. С помощью бывшего протеже отца, снайпера инструктора Ричарда Миллера, Беккету придется научиться действовать и думать как снайпер чтобы разыскать вражеского снайпера.

KinoPoisk.ru: 3.909
IMDb.com: 5.0/10

Pаздача группы:Изображение

Качество: BDRip 1080p
Формат: Mkv

Видео: MPEG4 Video (H264) 1920x1036 23.98fps
Аудио 1: Russian: АС3, 48.0 KHz, 448 kb/s (6 ch)
Аудио 2: English: DTS, 48.0 KHz, 1510 kb/s (6 ch)
Subtitle:Russian, Ukrainian, English Utf-8

Изображение

MediaInfo
General
Unique ID : 243952162057662109115925581172939131290 (0xB7877A36434C6B6F83ACF6CAB9DF899A)
Complete name : H:\ReLease\Sniper.Reloaded.BDRip.1080p.mkv
Format : Matroska
File size : 9.78 GiB
Duration : 1h 31mn
Overall bit rate : 15.3 Mbps
Movie name : -ABS-
Encoded date : UTC 2011-04-28 10:08:03
Writing application : mkvmerge v4.5.0 ('Speed of Light') сборка от Feb 1 2011 02:10:32
Writing library : libebml v1.2.0 + libmatroska v1.1.0

Video
ID : 1
Format : AVC
Format/Info : Advanced Video Codec
Format profile : High@L4.1
Format settings, CABAC : Yes
Format settings, ReFrames : 4 frames
Codec ID : V_MPEG4/ISO/AVC
Duration : 1h 31mn
Bit rate : 13.4 Mbps
Width : 1 920 pixels
Height : 1 036 pixels
Display aspect ratio : 1.853
Frame rate : 23.976 fps
Color space : YUV
Chroma subsampling : 4:2:0
Bit depth : 8 bits
Scan type : Progressive
Bits/(Pixel*Frame) : 0.280
Stream size : 8.34 GiB (85%)
Title : Sniper.Reloaded.2010
Writing library : x264 core 114 r1924 08d04a4
Encoding settings : cabac=1 / ref=4 / deblock=1:-3:-3 / analyse=0x3:0x113 / me=umh / subme=10 / psy=1 / psy_rd=1.05:0.10 / mixed_ref=1 / me_range=32 / chroma_me=1 / trellis=2 / 8x8dct=1 / cqm=2 / deadzone=21,11 / fast_pskip=0 / chroma_qp_offset=-2 / threads=12 / sliced_threads=0 / nr=0 / decimate=1 / interlaced=0 / constrained_intra=0 / bframes=6 / b_pyramid=2 / b_adapt=2 / b_bias=0 / direct=3 / weightb=1 / open_gop=0 / weightp=2 / keyint=250 / keyint_min=23 / scenecut=40 / intra_refresh=0 / rc_lookahead=50 / rc=2pass / mbtree=1 / bitrate=13372 / ratetol=1.0 / qcomp=0.70 / qpmin=1 / qpmax=63 / qpstep=4 / cplxblur=20.0 / qblur=0.5 / vbv_maxrate=40000 / vbv_bufsize=30000 / nal_hrd=none / ip_ratio=1.40 / aq=1:0.80
Language : English

Audio #1
ID : 2
Format : AC-3
Format/Info : Audio Coding 3
Mode extension : CM (complete main)
Codec ID : A_AC3
Duration : 1h 31mn
Bit rate mode : Constant
Bit rate : 448 Kbps
Channel(s) : 6 channels
Channel positions : Front: L C R, Side: L R, LFE
Sampling rate : 48.0 KHz
Bit depth : 16 bits
Compression mode : Lossy
Delay relative to video : 13ms
Stream size : 293 MiB (3%)
Language : Russian

Audio #2
ID : 3
Format : DTS
Format/Info : Digital Theater Systems
Codec ID : A_DTS
Duration : 1h 31mn
Bit rate mode : Constant
Bit rate : 1 510 Kbps
Channel(s) : 6 channels
Channel positions : Front: L C R, Side: L R, LFE
Sampling rate : 48.0 KHz
Bit depth : 24 bits
Compression mode : Lossy
Delay relative to video : 11ms
Stream size : 987 MiB (10%)
Language : English

Text #1
ID : 4
Format : UTF-8
Codec ID : S_TEXT/UTF8
Codec ID/Info : UTF-8 Plain Text
Title : Forced
Language : Russian

Text #2
ID : 5
Format : UTF-8
Codec ID : S_TEXT/UTF8
Codec ID/Info : UTF-8 Plain Text
Language : Ukrainian

Text #3
ID : 6
Format : UTF-8
Codec ID : S_TEXT/UTF8
Codec ID/Info : UTF-8 Plain Text
Language : English
Свернуть
Скриншоты
Изображение
Изображение
Изображение
Изображение
Изображение
Изображение
Свернуть
Не в сети
Профиль  
 Добавлено: 2011-04-30 06:12 (спустя 7 часов)
Аватара пользователя
Стаж: 8 лет 11 месяцев
Сообщений: 517
Спасибок: 39
Лайков: 49
Скока мильонов истратили на фильм?
Не в сети
Профиль  
 Добавлено: 2011-04-30 09:07 (спустя 2 часа 55 минут)
Top-seeder
Аватара пользователя
Стаж: 7 лет 6 месяцев
Возраст: 27
Сообщений: 2421
Спасибок: 455
Лайков: 14
Микки
Бюджет 10к тока на винтовку :-D

_______________________
это гугл показал :-D :-D
Не в сети
Профиль  
Начать новую темуОтветить на тему  [ Сообщений: 3 ] 
Вы не можете начинать темы
Вы не можете отвечать на сообщения
Вы не можете редактировать свои сообщения
Вы не можете удалять свои сообщения