Правила форума

  • В этом разделе создание новых тем Запрещено.
  • Для создания новых тем пользуйтесь Корневым разделом DVD и HD фильмы.
Начать новую темуОтветить на тему  [ 1 сообщение ] 
Торрент файл
Размер: 8.83 GB • Зарегистрирован: 4 года 11 месяцев • Статус: Проверено
Скачан: 29 раз • Желающих скачать: 0 • Поблагодарили: 11 раз
 Раздают: 1  |  0 KB/s  ]   Качают: 0  |  0 KB/s  ] 
Сообщения
 Добавлено: 2011-12-25 12:55
Книголюб
Аватара пользователя
Стаж: 7 лет 2 месяца
Сообщений: 2823
Спасибок: 48828
Лайков: 73
Соблазнитель
Kokowaah
Изображение


Год выпуска: 2010
Страна: Германия (Bela Jarzyk Production, Sat.1, Warner Bros.)
Жанр: мелодрама, комедия
Продолжительность: 02:06:34
Перевод: Профессиональный (дубляж)

Режиссёр: Тиль Швайгер
В ролях: Тиль Швайгер, Эмма Швайгер, Джасмин Джерат, Сэмюэл Финци, Нуман Акар, Мерет Беккер, Анна-Софи Брист , Фридерике Кемптер, Торстен Кюнстлер
Описание: Писатель Генри страдает от неразделённой любви и творческого кризиса. Как снег на голову на него сваливается предложение о работе над сценарием киноленты, в которой примет участие его бывшая подруга Катарина, в которую он влюблён и поныне. Возникает надежда на второй шанс, но появление восьмилетней Магдалены всё меняет.
Мировая премьера: 3 февраля 2011
Премьера в России: 8 сентября 2011, «Каскад»
Бюджет: €5 650 000
Кассовые сборы: $43 000 000
Изображение 7.241 3 338

Качество: BDRip 720p
Формат: MKV
Видео кодек: H264
Аудио кодек: AC3 (Dolby Digital)
Видео: 1280x542,23.98fps, 6768 kbps, 0.407Bits/Pixel
Аудио #1: Russian: 48 kHz, DTS, 3/2 (L,C,R,l,r) + LFE ch, ~1536.00 kbps
Аудио #2: German: 48 kHz, DTS, 3/2 (L,C,R,l,r) + LFE ch, ~1536.00 kbps

MediaInfo
General
Unique ID : 183285095744197877461391843095471925460 (0x89E36CE8AD35ED12A2CF27F71F7F28D4)
Complete name : F:\Kokowaah.2011.720p.mkv
Format : Matroska
File size : 8.83 GiB
Duration : 2h 6mn
Overall bit rate : 9 987 Kbps
Movie name : Kokowaah (2011) - Release for HDCLUB
Encoded date : UTC 2011-12-23 14:52:15
Writing application : mkvmerge v5.2.0 ('I can't explain') built on Dec 18 2011 18:12:03
Writing library : libebml v1.2.3 + libmatroska v1.3.0

Video
ID : 1
Format : AVC
Format/Info : Advanced Video Codec
Format profile : High@L4.1
Format settings, CABAC : Yes
Format settings, ReFrames : 10 frames
Codec ID : V_MPEG4/ISO/AVC
Duration : 2h 6mn
Bit rate : 6 768 Kbps
Width : 1 280 pixels
Height : 542 pixels
Display aspect ratio : 2.35:1
Frame rate : 23.976 fps
Color space : YUV
Chroma subsampling : 4:2:0
Bit depth : 8 bits
Scan type : Progressive
Bits/(Pixel*Frame) : 0.407
Stream size : 5.98 GiB (68%)
Title : Kokowaah (2011) - Release for HDCLUB
Writing library : x264 core 120 r2120 0c7dab9
Encoding settings : cabac=1 / ref=10 / deblock=1:-3:-3 / analyse=0x3:0x133 / me=umh / subme=11 / psy=1 / psy_rd=1.00:0.00 / mixed_ref=1 / me_range=64 / chroma_me=1 / trellis=2 / 8x8dct=1 / cqm=0 / deadzone=21,11 / fast_pskip=0 / chroma_qp_offset=-2 / threads=9 / sliced_threads=0 / nr=0 / decimate=0 / interlaced=0 / bluray_compat=0 / constrained_intra=0 / bframes=8 / b_pyramid=2 / b_adapt=2 / b_bias=0 / direct=3 / weightb=1 / open_gop=0 / weightp=2 / keyint=250 / keyint_min=23 / scenecut=40 / intra_refresh=0 / rc_lookahead=40 / rc=crf / mbtree=0 / crf=16.9 / qcomp=0.60 / qpmin=0 / qpmax=69 / qpstep=4 / vbv_maxrate=50000 / vbv_bufsize=62500 / crf_max=0.0 / nal_hrd=none / ip_ratio=1.40 / pb_ratio=1.30 / aq=1:0.80
Language : German

Audio #1
ID : 2
Format : DTS
Format/Info : Digital Theater Systems
Codec ID : A_DTS
Duration : 2h 6mn
Bit rate mode : Constant
Bit rate : 1 510 Kbps
Channel(s) : 6 channels
Channel positions : Front: L C R, Side: L R, LFE
Sampling rate : 48.0 KHz
Bit depth : 16 bits
Compression mode : Lossy
Stream size : 1.33 GiB (15%)
Title : Дубляж, Blu-ray
Language : Russian

Audio #2
ID : 3
Format : DTS
Format/Info : Digital Theater Systems
Codec ID : A_DTS
Duration : 2h 6mn
Bit rate mode : Constant
Bit rate : 1 510 Kbps
Channel(s) : 6 channels
Channel positions : Front: L C R, Side: L R, LFE
Sampling rate : 48.0 KHz
Bit depth : 16 bits
Compression mode : Lossy
Stream size : 1.33 GiB (15%)
Language : German

Text
ID : 4
Format : UTF-8
Codec ID : S_TEXT/UTF8
Codec ID/Info : UTF-8 Plain Text
Language : Russian

Menu
00:00:00.000 : en:Chapter 01
00:12:18.028 : en:Chapter 02
00:18:56.677 : en:Chapter 03
00:27:52.045 : en:Chapter 04
00:35:32.588 : en:Chapter 05
00:41:00.332 : en:Chapter 06
00:50:42.873 : en:Chapter 07
00:56:55.703 : en:Chapter 08
01:02:21.487 : en:Chapter 09
01:09:03.180 : en:Chapter 10
01:17:44.368 : en:Chapter 11
01:27:07.347 : en:Chapter 12
01:39:57.449 : en:Chapter 13
01:46:11.656 : en:Chapter 14
01:56:57.135 : en:Chapter 15
02:06:33.544 : en:Chapter 16


Свернуть

Скриншоты
Изображение
Изображение
Изображение
Изображение
Свернуть
Не в сети
Профиль  
Начать новую темуОтветить на тему  [ 1 сообщение ] 
Вы не можете начинать темы
Вы не можете отвечать на сообщения
Вы не можете редактировать свои сообщения
Вы не можете удалять свои сообщения