Правила форума

  • В этом разделе создание новых тем Запрещено.
  • Для создания новых тем пользуйтесь Корневым разделом DVD и HD фильмы.
Начать новую темуОтветить на тему  [ 1 сообщение ] 
Торрент файл
Размер: 8.16 GB • Зарегистрирован: 2 года 10 месяцев • Статус: T Временный релиз
Скачан: 31 раз • Желающих скачать: 0 • Поблагодарили: 9 раз
 Раздают: 0  |  0 KB/s  ]   Качают: 0  |  0 KB/s  ] 
 Полного источника не было 2 дня 22 часа 
Сообщения
 Добавлено: 2014-01-10 00:56
Аватара пользователя
Стаж: 3 года 6 месяцев
Сообщений: 175
Спасибок: 4257
Лайков: 29
Собутыльники / Drinking Buddies

«A comedy about knowing when to say when»

Изображение


Год выпуска: 2013
Страна: США (Burn Later Productions)
Жанр: Драма, Мелодрама, Комедия
Продолжительность: 01:30:22
Перевод: Профессиональный (многоголосый закадровый)[iTunes]
Субтитры: Вшитые отключаемые
Язык субтитров: Русский, английский

Режиссёр: Джо Сванберг
В ролях: Оливия Уайлд, Джейк Джонсон, Анна Кендрик, Рон Ливингстон, Джо Сванберг, Тай Уэст, Роберта Чунг, Калли Стефенс, Сэм Слэйтер, Майк Брюн
Описание: Люк и Кейт сотрудники чикагского пивоваренного завода, где они проводят свои дни, выпивая и флиртуя. Они идеально подходят друг другу, но вот только они оба уже состоят в отношениях…

Изображение
Изображение

Качество: BDRip [1080p]
Формат: MKV
Видео кодек: AVC/H.264
Аудио кодек: AC3, DTS
Видео: H264, 11,0 Мбит/сек, 1920x816, 23.976 кадр/с
Аудио #1: Русский: AC3, 2.0, 384 Кбит/с, 48kHz, 16 bit
Аудио #2: Английский: DTS, 5.1, 1536 Кбит/с, 48 kHz, 24 bit
Изображение
Скриншоты
Изображение
Изображение
Изображение
Изображение
Изображение
Изображение
Свернуть

MediaInfo
General
Unique ID : 173513856688229877431594328072697233549 (0x82898DA0E3303F78865EC9EEB5A5408D)
Complete name : F:\ФИЛЬМЫ\Drinking.Buddies.2013.BDRip.1080p.Rus.Eng.mkv
Format : Matroska
Format version : Version 2
File size : 8.16 GiB
Duration : 1h 30mn
Overall bit rate : 12.9 Mbps
Movie name : Drinking.Buddies.2013.720p.BluRay.DTS.x264-TayTO
Encoded date : UTC 2014-01-08 15:22:27
Writing application : mkvmerge v4.9.1 ('Ich will') built on Jul 11 2011 23:53:15
Writing library : libebml v1.2.1 + libmatroska v1.1.1

Video
ID : 1
Format : AVC
Format/Info : Advanced Video Codec
Format profile : High@L4.1
Format settings, CABAC : Yes
Format settings, ReFrames : 5 frames
Codec ID : V_MPEG4/ISO/AVC
Duration : 1h 30mn
Bit rate : 11.0 Mbps
Width : 1 920 pixels
Height : 816 pixels
Display aspect ratio : 2.35:1
Frame rate mode : Constant
Frame rate : 23.976 fps
Color space : YUV
Chroma subsampling : 4:2:0
Bit depth : 8 bits
Scan type : Progressive
Bits/(Pixel*Frame) : 0.294
Stream size : 6.80 GiB (83%)
Title : hahay0yo@CHD
Writing library : x264 core 138 r2356 a1d3d17
Encoding settings : cabac=1 / ref=5 / deblock=1:-3:-3 / analyse=0x3:0x113 / me=umh / subme=10 / psy=1 / psy_rd=1.00:0.05 / mixed_ref=1 / me_range=32 / chroma_me=1 / trellis=2 / 8x8dct=1 / cqm=0 / deadzone=21,11 / fast_pskip=0 / chroma_qp_offset=-2 / threads=18 / lookahead_threads=1 / sliced_threads=0 / nr=0 / decimate=1 / interlaced=0 / bluray_compat=0 / constrained_intra=0 / bframes=4 / b_pyramid=2 / b_adapt=2 / b_bias=0 / direct=3 / weightb=1 / open_gop=0 / weightp=2 / keyint=250 / keyint_min=23 / scenecut=40 / intra_refresh=0 / rc=2pass / mbtree=0 / bitrate=11041 / ratetol=1.0 / qcomp=0.70 / qpmin=0 / qpmax=69 / qpstep=4 / cplxblur=20.0 / qblur=0.5 / ip_ratio=1.40 / pb_ratio=1.30 / aq=2:1.00
Language : English
Default : Yes
Forced : No

Audio #1
ID : 2
Format : AC-3
Format/Info : Audio Coding 3
Mode extension : CM (complete main)
Format settings, Endianness : Big
Codec ID : A_AC3
Duration : 1h 30mn
Bit rate mode : Constant
Bit rate : 384 Kbps
Channel(s) : 2 channels
Channel positions : Front: L R
Sampling rate : 48.0 KHz
Bit depth : 16 bits
Compression mode : Lossy
Stream size : 248 MiB (3%)
Language : Russian
Default : Yes
Forced : No

Audio #2
ID : 3
Format : DTS
Format/Info : Digital Theater Systems
Mode : 16
Format settings, Endianness : Big
Codec ID : A_DTS
Duration : 1h 30mn
Bit rate mode : Constant
Bit rate : 1 509 Kbps
Channel(s) : 6 channels
Channel positions : Front: L C R, Side: L R, LFE
Sampling rate : 48.0 KHz
Bit depth : 24 bits
Compression mode : Lossy
Stream size : 975 MiB (12%)
Language : English
Default : No
Forced : No

Text #1
ID : 4
Format : UTF-8
Codec ID : S_TEXT/UTF8
Codec ID/Info : UTF-8 Plain Text
Language : Russian
Default : No
Forced : No

Text #2
ID : 5
Format : UTF-8
Codec ID : S_TEXT/UTF8
Codec ID/Info : UTF-8 Plain Text
Language : English
Default : No
Forced : No

Menu #1
00:00:00.000 : en:00:00:00.000
00:07:19.439 : en:00:07:19.439
00:15:21.546 : en:00:15:21.546
00:21:17.067 : en:00:21:17.067
00:30:13.270 : en:00:30:13.270
00:37:39.215 : en:00:37:39.215
00:44:10.356 : en:00:44:10.356
00:51:01.392 : en:00:51:01.392
00:58:22.582 : en:00:58:22.582
01:05:47.026 : en:01:05:47.026
01:16:21.076 : en:01:16:21.076
01:26:41.446 : en:01:26:41.446

Menu #2
00:00:00.054 : en:00:00:00.054
Свернуть
Не в сети
Профиль  
Начать новую темуОтветить на тему  [ 1 сообщение ] 
Вы не можете начинать темы
Вы не можете отвечать на сообщения
Вы не можете редактировать свои сообщения
Вы не можете удалять свои сообщения