Правила форума

  • В этом разделе создание новых тем Запрещено.
  • Для создания новых тем пользуйтесь Корневым разделом DVD и HD фильмы.
Начать новую темуОтветить на тему  [ Сообщений: 3 ] 
Торрент файл
Размер: 9.98 GB • Зарегистрирован: 4 года 7 месяцев • Статус: Проверено
Скачан: 73 раза • Желающих скачать: 0 • Поблагодарили: 19 раз
 Раздают: 0  |  0 KB/s  ]   Качают: 0  |  0 KB/s  ] 
 Полного источника не было 1 год 6 месяцев 
Сообщения
 Добавлено: 2012-05-04 13:27
Аватара пользователя
Стаж: 8 лет 9 месяцев
Сообщений: 59
Спасибок: 336
Солдаты неудачи / Tropic Thunder

Изображение


Год выпуска: 2008
Страна: Германия, США
Слоган: «Они сражались за 'Оскар'»
Жанр: сатирическая комедия
Продолжительность: 1:46:47
Перевод: Профессиональный (дубляж)
Субтитры: Русские, Английские, Украинские

Режиссёр: Бен Стиллер
Сценарист: Бен Стиллер, Джастин Теру, Итан Коэн
Продюсер: Стюарт Корнфелд, Эрик МакЛеод, Бен Стиллер, Мэтт Эппедио, Патрик Эспозито
Оператор: Джон Толл
Композитор: Теодор Шапиро
В ролях: Стиллер, Джек Блэк, Роберт Дауни мл., Ник Нолти, Том Круз
Описание: Камера. Мотор. Начали! В реальных джунглях проходят съемки суперблокбастера с участием больших звезд, среди которых: крутой герой боевиков, мастер туалетного юмора, чернокожий рэппер Альпа Чино и обладатель всех кинопремий, специально для фильма перекрасивший кожу в черный цвет.
Мировая премьера: 13 августа 2008
Премьера в России: 13 августа 2008
Бюджет: $92 000 000
Кассовые сборы: $188 072 649
Изображение Изображение

Качество: BDRip 1080p
Формат: MKV
Видео кодек: H264 (AVC)
Аудио кодек: AC3 (Dolby Digital)
Видео: 1920x822, 23.976 fps, 10600 kbps
Аудио #1: Russian: 48 kHz, AC3, 3/2 (L,C,R,l,r) + LFE ch, ~640.00 kbps avg [Профессиональный (дубляж)]
Аудио #2: Ukrainian: 48 kHz, AC3, 3/2 (L,C,R,l,r) + LFE ch, ~448.00 kbps avg [Профессиональный (дубляж)]
Аудио #3: English: 48 kHz, DTS, 3/2 (L,C,R,l,r) + LFE ch, ~1536.00 kbps avg [Оригинальная звуковая дорожка]
Аудио #4: English: 48 kHz, AC3, 2/0 (L,R), ~224.00 kbps avg [комментарии] [Профессиональный (дубляж)]
Субтитры: Русские, Английские, Украинские
Скриншоты
Изображение
Изображение
Изображение
Свернуть

Знаете ли Вы, что...
Рабочие российские варианты названия фильма: «Миссия: Выполнима», «Гром в тропиках» и «Тропический гром».
В сцене вручения «Оскара» на экране помимо Тага Спидмена можно увидеть Тома Хэнкса, Дастина Хоффмана и Тоби Магуайра.
В трейлере «Дебил Джек» сыграла жена Бена Стиллера - Кристин Тейлор.
Съёмки проходили с 9 июля 2007 года на Гавайях и в Лос-Анджелесе.
Премьера «Солдат неудачи» сопровождалась протестами со стороны ряда американских общественных организаций, по мнению которых отдельные диалоги и сцены фильма являлись открытым оскорблением чувств и прав умственно отсталых граждан.
Том Круз сам предложил, чтобы его персонаж исполнил танец. Изначально танцев в сценарии не было.
Свернуть

"MediaInfo"
Общее
Уникальный идентификатор : 189115789550375494181465662548116393194 (0x8E46604EFB11124CBB7828AE47224CEA)
Полное имя : D:\кино\Tropic.Thunder.1080p.mkv
Формат : Matroska
Размер файла : 9,98 Гбайт
Продолжительность : 1 ч. 46 м.
Общий поток : 13,4 Мбит/сек
Название фильма : Tropic Thunder (2008) - Release for HDCLUB
Дата кодирования : UTC 2009-03-17 05:58:58
Программа кодирования : mkvmerge v2.5.3 ('Boogie') built on Mar 7 2009 15:00:41
Библиотека кодирования : libebml v0.7.7 + libmatroska v0.8.1

Видео
Идентификатор : 1
Формат : AVC
Формат/Информация : Advanced Video Codec
Профиль формата : High@L4.1
Параметр CABAC формата : Да
Параметр ReFrames формата : 5 кадров
Идентификатор кодека : V_MPEG4/ISO/AVC
Продолжительность : 1 ч. 46 м.
Битрейт : 10,6 Мбит/сек
Ширина : 1920 пикс.
Высота : 822 пикс.
Соотношение сторон : 2,35:1
Частота кадров : 23,976 кадр/сек
Цветовое пространство : YUV
Подвыборка цветности : 4:2:0
Битовая глубина : 8 бит
Тип развёртки : Прогрессивная
Бит/(Пиксели*Кадры) : 0.279
Размер потока : 7,68 Гбайт (77%)
Заголовок : Release for HDCLUB
Библиотека кодирования : x264 core 67 r1127M 8d82fec
Настройки программы : cabac=1 / ref=5 / deblock=1:-3:-3 / analyse=0x3:0x113 / me=esa / subme=9 / psy_rd=0.9:0.0 / mixed_ref=1 / me_range=32 / chroma_me=1 / trellis=2 / 8x8dct=1 / cqm=0 / deadzone=21,11 / chroma_qp_offset=-2 / threads=6 / nr=0 / decimate=0 / mbaff=0 / bframes=5 / b_pyramid=1 / b_adapt=2 / b_bias=0 / direct=3 / wpredb=1 / keyint=250 / keyint_min=25 / scenecut=40 / rc=2pass / bitrate=10554 / ratetol=1.0 / qcomp=0.60 / qpmin=10 / qpmax=51 / qpstep=4 / cplxblur=20.0 / qblur=0.5 / ip_ratio=1.40 / pb_ratio=1.30 / aq=1:0.90
Язык : English

Аудио #1
Идентификатор : 2
Формат : AC-3
Формат/Информация : Audio Coding 3
Расширение режима : CM (complete main)
Идентификатор кодека : A_AC3
Продолжительность : 1 ч. 46 м.
Вид битрейта : Постоянный
Битрейт : 640 Кбит/сек
Каналы : 6 каналов
Расположение каналов : Front: L C R, Side: L R, LFE
Частота : 48,0 КГц
Битовая глубина : 16 бит
Метод сжатия : С потерями
Размер потока : 489 Мбайт (5%)
Заголовок : AC3 5.1 @ 640 kbps - Дублированный
Язык : Russian

Аудио #2
Идентификатор : 3
Формат : AC-3
Формат/Информация : Audio Coding 3
Расширение режима : CM (complete main)
Идентификатор кодека : A_AC3
Продолжительность : 1 ч. 46 м.
Вид битрейта : Постоянный
Битрейт : 448 Кбит/сек
Каналы : 6 каналов
Расположение каналов : Front: L C R, Side: L R, LFE
Частота : 48,0 КГц
Битовая глубина : 16 бит
Метод сжатия : С потерями
Задержка видео : 29 мс.
Размер потока : 342 Мбайт (3%)
Заголовок : AC3 5.1 @ 448 kbps - Дублированный
Язык : Ukrainian

Аудио #3
Идентификатор : 4
Формат : DTS
Формат/Информация : Digital Theater Systems
Идентификатор кодека : A_DTS
Продолжительность : 1 ч. 46 м.
Вид битрейта : Постоянный
Битрейт : 1510 Кбит/сек
Каналы : 6 каналов
Расположение каналов : Front: L C R, Side: L R, LFE
Частота : 48,0 КГц
Битовая глубина : 24 бит
Метод сжатия : С потерями
Размер потока : 1,13 Гбайт (11%)
Заголовок : DTS 5.1 @ 1536 kbps
Язык : English

Аудио #4
Идентификатор : 5
Формат : AC-3
Формат/Информация : Audio Coding 3
Расширение режима : CM (complete main)
Идентификатор кодека : A_AC3
Продолжительность : 1 ч. 46 м.
Вид битрейта : Постоянный
Битрейт : 224 Кбит/сек
Каналы : 2 канала
Расположение каналов : Front: L R
Частота : 48,0 КГц
Битовая глубина : 16 бит
Метод сжатия : С потерями
Размер потока : 171 Мбайт (2%)
Заголовок : AC3 2.0 @ 224 kbps - Комментарии
Язык : English

Текст #1
Идентификатор : 6
Формат : UTF-8
Идентификатор кодека : S_TEXT/UTF8
Идентификатор кодека/Информация : UTF-8 Plain Text
Язык : Russian

Текст #2
Идентификатор : 7
Формат : UTF-8
Идентификатор кодека : S_TEXT/UTF8
Идентификатор кодека/Информация : UTF-8 Plain Text
Язык : Ukrainian

Текст #3
Идентификатор : 8
Формат : UTF-8
Идентификатор кодека : S_TEXT/UTF8
Идентификатор кодека/Информация : UTF-8 Plain Text
Язык : English

Текст #4
Идентификатор : 9
Формат : UTF-8
Идентификатор кодека : S_TEXT/UTF8
Идентификатор кодека/Информация : UTF-8 Plain Text
Заголовок : Комментарии
Язык : English
Свернуть
Не в сети
Профиль  
 Добавлено: 2013-06-23 17:45 (спустя 1 год 1 месяц)
Аватара пользователя
Стаж: 8 лет 6 месяцев
Сообщений: 15
Привет!!! Плиз мне фильм и скорость))) Спасибо!!!
Не в сети
Профиль  
 Добавлено: 2014-09-11 16:05 (спустя 1 год 2 месяца)
Аватара пользователя
Стаж: 4 года 11 месяцев
Возраст: 29
Сообщений: 183
Спасибок: 1075
Лайков: 30
звук говно все лагает!
_________________
Изображение
Изображение
Не в сети
Профиль  
Начать новую темуОтветить на тему  [ Сообщений: 3 ] 
Вы не можете начинать темы
Вы не можете отвечать на сообщения
Вы не можете редактировать свои сообщения
Вы не можете удалять свои сообщения