Правила форума

  • В этом разделе создание новых тем Запрещено.
  • Для создания новых тем пользуйтесь Корневым разделом DVD и HD фильмы.
Начать новую темуОтветить на тему  [ Сообщений: 5 ] 
Торрент файл
Размер: 9 GB • Зарегистрирован: 5 лет • Статус: Проверено
Скачан: 80 раз • Желающих скачать: 0 • Поблагодарили: 14 раз
 Раздают: 0  |  0 KB/s  ]   Качают: 0  |  0 KB/s  ] 
 Полного источника не было 3 года 1 месяц 
Сообщения
 Добавлено: 2011-12-05 14:03
Top-releaser
Аватара пользователя
Стаж: 7 лет 3 месяца
Возраст: 25
Сообщений: 1036
Спасибок: 2694
Лайков: 9
Соломенные псы / Straw Dogs

«У каждого есть предел.»

Изображение



Год выхода: 2011
Страна: США

Жанр: триллер, драма, криминал
Продолжительность: 01:49:44
Перевод: Дублированный [лицензия]

Режиссер: Род Лури
Сценарий: Род Лури, Дэвид Зелаг Гудман, Сэм Пекинпа, ...
Продюсер: Марк Фридман, Род Лури, Гилберт Думонтет, ...
Оператор: Алик Сахаров
Композитор: Ларри Груп

В ролях: Джеймс Марсден, Кейт Босворт, Александр Скарсгард, Джеймс Вудс, Доминик Пурселл, Риз Койро, Билли Луш, Лас Алонсо, Уилла Холлэнд, Уолтон Гоггинс

Описание: Лос-анджелесский журналист вместе с женой переезжает на Юг, где и без того трещащий по швам брак становится причиной форменной катастрофы: селяне третируют новичков, провоцируя насилие.

Изображение

Бюджет: $25 000 000
Cборы в США: $10 324 441
Cборы в России: $415 784

Pаздача группы:Изображение

Качество: BDRip 1080p
Формат: Mkv

Видео: MPEG4 Video (H264) 1920x800 23.98fps 9 854 Kbps
Аудио 1:[Rus] Dolby AC3 48000Hz 6ch 384 Kbps
Аудио 2:[Eng] Dts 48000Hz 6ch 1 510 Kbps
Subtitle: Utf-8

Изображение

MediaInfo
General
Unique ID : 181331138636288019152734553957984188491 (0x886B1B62B5C6B502B9BB9873BF41384B)
Complete name : H:\Download\Solomennye.psy.2011.D.BDRip.1080p.ELEKTRI4KA.mkv
Format : Matroska
Format version : Version 2
File size : 9.00 GiB
Duration : 1h 49mn
Overall bit rate : 11.7 Mbps
Movie name : ELEKTRI4KA
Encoded date : UTC 2011-12-04 19:29:45
Writing application : mkvmerge v5.0.1 ('Es ist Sommer') built on Oct 9 2011 11:55:43
Writing library : libebml v1.2.2 + libmatroska v1.3.0

Video
ID : 1
Format : AVC
Format/Info : Advanced Video Codec
Format profile : High@L4.1
Format settings, CABAC : Yes
Format settings, ReFrames : 5 frames
Codec ID : V_MPEG4/ISO/AVC
Duration : 1h 49mn
Bit rate : 9 854 Kbps
Width : 1 920 pixels
Height : 800 pixels
Display aspect ratio : 2.40:1
Frame rate : 23.976 fps
Color space : YUV
Chroma subsampling : 4:2:0
Bit depth : 8 bits
Scan type : Progressive
Bits/(Pixel*Frame) : 0.268
Stream size : 7.37 GiB (82%)
Title : CHD
Writing library : x264 core 118 r2085+614 d1cc25d
Encoding settings : cabac=1 / ref=5 / deblock=1:-3:-3 / analyse=0x3:0x113 / me=umh / subme=11 / psy=1 / fade_compensate=0.00 / psy_rd=1.05:0.10 / mixed_ref=1 / me_range=48 / chroma_me=1 / trellis=2 / 8x8dct=1 / cqm=1 / deadzone=21,11 / fast_pskip=0 / chroma_qp_offset=-2 / threads=12 / sliced_threads=0 / nr=0 / decimate=1 / interlaced=0 / bluray_compat=0 / constrained_intra=0 / fgo=0 / bframes=6 / b_pyramid=2 / b_adapt=2 / b_bias=0 / direct=3 / weightb=1 / open_gop=0 / weightp=2 / keyint=250 / keyint_min=23 / scenecut=40 / intra_refresh=0 / rc_lookahead=60 / rc=2pass / mbtree=1 / bitrate=9854 / ratetol=2.0 / qcomp=0.70 / qpmin=3 / qpmax=69 / qpstep=4 / cplxblur=20.0 / qblur=0.5 / vbv_maxrate=40000 / vbv_bufsize=30000 / nal_hrd=none / ip_ratio=1.40 / aq=2:1.00
Language : English

Audio #1
ID : 2
Format : AC-3
Format/Info : Audio Coding 3
Mode extension : CM (complete main)
Codec ID : A_AC3
Duration : 1h 49mn
Bit rate mode : Constant
Bit rate : 384 Kbps
Channel(s) : 6 channels
Channel positions : Front: L C R, Side: L R, LFE
Sampling rate : 48.0 KHz
Bit depth : 16 bits
Compression mode : Lossy
Stream size : 301 MiB (3%)
Title : Dub R5
Language : Russian

Audio #2
ID : 3
Format : DTS
Format/Info : Digital Theater Systems
Codec ID : A_DTS
Duration : 1h 49mn
Bit rate mode : Constant
Bit rate : 1 510 Kbps
Channel(s) : 6 channels
Channel positions : Front: L C R, Side: L R, LFE
Sampling rate : 48.0 KHz
Bit depth : 24 bits
Compression mode : Lossy
Stream size : 1.16 GiB (13%)
Language : English

Text #1
ID : 4
Format : UTF-8
Codec ID : S_TEXT/UTF8
Codec ID/Info : UTF-8 Plain Text
Title : R5
Language : Russian

Text #2
ID : 5
Format : UTF-8
Codec ID : S_TEXT/UTF8
Codec ID/Info : UTF-8 Plain Text
Title : R5
Language : Ukrainian

Text #3
ID : 6
Format : UTF-8
Codec ID : S_TEXT/UTF8
Codec ID/Info : UTF-8 Plain Text
Language : English


Свернуть
Скриншоты
Изображение
Изображение
Изображение
Изображение
Изображение
Свернуть
Не в сети
Профиль  
 Добавлено: 2011-12-07 15:08 (спустя 2 дня 1 час)
Стаж: 5 лет 3 месяца
Сообщений: 150
Лайков: 2
Фильм полнейшее говно(((
Не в сети
Профиль  
 Добавлено: 2012-01-09 13:40 (спустя 1 месяц 1 день)
Аватара пользователя
Стаж: 8 лет 11 месяцев
Возраст: 27
Сообщений: 721
Спасибок: 5528
Лайков: 1
интересненький фильмец :)
_________________
Изображение
Не в сети
Профиль  
 Добавлено: 2012-01-09 21:00 (спустя 7 часов)
Стаж: 5 лет 3 месяца
Сообщений: 150
Лайков: 2
Ожидал большего(((Полнейшее Г.....О!!!!!
Не в сети
Профиль  
 Добавлено: 2012-06-12 23:32 (спустя 5 месяцев 3 дня)
Стаж: 8 лет 7 месяцев
Сообщений: 5
Спасибок: 16
Вообще то это пересъемка вот этого фильма viewtopic.php?f=1750&t=436589
Не в сети
Профиль  
Начать новую темуОтветить на тему  [ Сообщений: 5 ] 
Вы не можете начинать темы
Вы не можете отвечать на сообщения
Вы не можете редактировать свои сообщения
Вы не можете удалять свои сообщения