Правила форума

  • В этом разделе создание новых тем Запрещено.
  • Для создания новых тем пользуйтесь Корневым разделом DVD и HD фильмы.
Начать новую темуОтветить на тему  [ Сообщений: 5 ] 
Торрент файл
Размер: 9.21 GB • Зарегистрирован: 5 лет 10 месяцев • Статус: Проверено
Скачан: 268 раз • Желающих скачать: 0 • Поблагодарили: 42 раза
 Раздают: 1  |  0 KB/s  ]   Качают: 0  |  0 KB/s  ] 
Сообщения
 Добавлено: 2011-01-30 17:36
Top-releaser
Аватара пользователя
Стаж: 8 лет 5 месяцев
Сообщений: 6859
Спасибок: 440295
Лайков: 34
Соломон Кейн
Solomon Kane

Изображение

Год выпуска: 2009
Страна: Франция, Великобритания, Чехия
Слоган: «Заключая сделку с дьяволом – готовься к адской расплате.»
Жанр: фэнтези, боевик, приключения
Продолжительность: 01:43:54
Перевод: Профессиональный (полное дублирование)
Режиссер: Майкл Дж. Бассетт
Сценарий: Майкл Дж. Бассетт, Роберт И. Говард
Продюсер: Марсело Анчиано, Майкл Берроу, Пол Берроу, Сэмюэл Хадида, Виктор Хадида
Оператор: Дан Лаустсен
Композитор: Клаус Бадельт
В ролях: Джеймс Пьюрфой, Марк О’Нил, Роберт Орр, Ричард Райан, Франтишек Дик, Кристиан Данкли Кларк, Йен Уайт, Томас МакЕнчрой, Эндрю Уитлоу, Роберт Расселл, Джеймс Бэбсон, Марек Вашут
Дублёры: Владимир Антоник, Иван Жарков, Артем Карапетян, Прохор Чеховской, Денис Виленкин, Вероника Саркисова, Дмитрий Филимонов, Ярослава Турылёва
Бюджет: $45 000 000
Сборы в России: $1 888 826
Сборы в мире: $17 730 275
Мировая премьера: 16 сентября 2009
Описание: По мотивам рассказов Роберта Ирвина Говарда. Соломон Кейн - английский солдат XVI века, который осознал, что его бесчеловечные и жестокие поступки навечно прокляли его душу. Вознамерившись искупить свои грехи, Кейн клянется жить в мире и добродетели, но когда на землю ступают темные силы, ему не остается ничего, как дать бой.
Изображение 6.20 (11 223) Изображение 6.057 (7 135)
Релиз группы: Изображение
Изображение
Формат: MKV
Качество: BDRip 1080p R5
Видео: 9391 kb/s, 1920x816, 24,000 кадр/сек, 0.236
Аудио: Russian: AC3, 192 kb/s (2 ch) [ТНТ] / DTS, 1510 kb/s (6 ch) [Ю.Немахов] / English: DTS, 1510 kb/s (6 ch)
Субтитры: Russian, English
Размер: 9.21 GB
NFO
Полное имя : JurganT: Solomon.Kane.2009.D.BDRip.1080p.[uniongang.tv].mkv
Формат : Matroska
Размер файла : 9,21 Гбайт
Продолжительность : 1 ч. 46 м.
Общий поток : 12,3 Мбит/сек
Название фильма : Соломон Кейн / Solomon Kane (2009) .....:::UNIONGANG:::.....
Дата кодирования : UTC 2011-01-30 11:44:07
Программа кодирования : mkvmerge v3.4.0 ('Rapunzel') сборка от May 15 2010 09:38:20
Библиотека кодирования : libebml v0.8.0 + libmatroska v0.9.0

Видео
Идентификатор : 1
Формат : AVC
Формат/Информация : Advanced Video Codec
Профиль формата : High@L4.1
Параметр CABAC формата : Да
Параметр ReFrames формата : 5 кадры
Идентификатор кодека : V_MPEG4/ISO/AVC
Продолжительность : 1 ч. 46 м.
Битрейт : 9391 Кбит/сек
Ширина : 1920 пикс.
Высота : 816 пикс.
Соотношение сторон : 2,35:1
Частота кадров : 24,000 кадр/сек
Цветовое пространство : YUV
Подвыборка цветности : 4:2:0
Битовая глубина : 8 бит
Тип развёртки : Прогрессивная
Бит/(Пиксели*Кадры) : 0.236
Размер потока : 6,63 Гбайт (72%)
Заголовок : Solomon.Kane.2009.D.BDRip.1080p
Библиотека кодирования : x264 core 96 r1613 81e75e9
Настройки программы : cabac=1 / ref=5 / deblock=1:0:0 / analyse=0x3:0x2 / me=umh / subme=7 / psy=1 / psy_rd=1.00:0.00 / mixed_ref=1 / me_range=16 / chroma_me=0 / trellis=1 / 8x8dct=1 / cqm=0 / deadzone=21,11 / fast_pskip=0 / chroma_qp_offset=-2 / threads=12 / sliced_threads=0 / nr=0 / decimate=1 / interlaced=0 / constrained_intra=0 / bframes=3 / b_pyramid=0 / b_adapt=1 / b_bias=0 / direct=1 / weightb=1 / weightp=2 / keyint=250 / keyint_min=25 / scenecut=40 / intra_refresh=0 / rc=2pass / mbtree=0 / bitrate=9391 / ratetol=1.0 / qcomp=0.60 / qpmin=10 / qpmax=51 / qpstep=4 / cplxblur=20.0 / qblur=0.5 / ip_ratio=1.40 / pb_ratio=1.30 / aq=1:1.00
Язык : English

Аудио #1
Идентификатор : 2
Формат : AC-3
Формат/Информация : Audio Coding 3
Расширение режима : CM (complete main)
Идентификатор кодека : A_AC3
Продолжительность : 1 ч. 46 м.
Вид битрейта : Постоянный
Битрейт : 192 Кбит/сек
Канал(ы) : 2 канала(ов)
Расположение каналов : Front: L R
Частота : 48,0 КГц
Битовая глубина : 16 бит
Метод сжатия : С потерями
Размер потока : 147 Мбайт (2%)
Заголовок : AC3 2.0 @ 192 kb/s [Russian DUB TNT]
Язык : Russian

Аудио #2
Идентификатор : 3
Формат : DTS
Формат/Информация : Digital Theater Systems
Идентификатор кодека : A_DTS
Продолжительность : 1 ч. 46 м.
Вид битрейта : Постоянный
Битрейт : 1510 Кбит/сек
Канал(ы) : 6 канала(ов)
Расположение каналов : Front: L C R, Side: L R, LFE
Частота : 48,0 КГц
Битовая глубина : 24 бит
Метод сжатия : С потерями
Размер потока : 1,13 Гбайт (12%)
Заголовок : DTS 5.1 @ 1510 kb/s [Russian AVO Y. Nemahov]
Язык : Russian

Аудио #3
Идентификатор : 4
Формат : DTS
Формат/Информация : Digital Theater Systems
Идентификатор кодека : A_DTS
Продолжительность : 1 ч. 46 м.
Вид битрейта : Постоянный
Битрейт : 1510 Кбит/сек
Канал(ы) : 6 канала(ов)
Расположение каналов : Front: L C R, Side: L R, LFE
Частота : 48,0 КГц
Битовая глубина : 24 бит
Метод сжатия : С потерями
Размер потока : 1,13 Гбайт (12%)
Заголовок : DTS 5.1 @ 1510 kb/s [English]
Язык : English

Текст #1
Идентификатор : 5
Формат : UTF-8
Идентификатор кодека : S_TEXT/UTF8
Идентификатор кодека/Информация : UTF-8 Plain Text
Заголовок : Russian [Full]
Язык : Russian

Текст #2
Идентификатор : 6
Формат : UTF-8
Идентификатор кодека : S_TEXT/UTF8
Идентификатор кодека/Информация : UTF-8 Plain Text
Заголовок : Russian [Full, Coloured]
Язык : Russian

Текст #3
Идентификатор : 7
Формат : UTF-8
Идентификатор кодека : S_TEXT/UTF8
Идентификатор кодека/Информация : UTF-8 Plain Text
Заголовок : Russian [Full, SDH]
Язык : Russian

Текст #4
Идентификатор : 8
Формат : UTF-8
Идентификатор кодека : S_TEXT/UTF8
Идентификатор кодека/Информация : UTF-8 Plain Text
Заголовок : Russian [Full, SDH, Coloured]
Язык : Russian

Текст #5
Идентификатор : 9
Формат : UTF-8
Идентификатор кодека : S_TEXT/UTF8
Идентификатор кодека/Информация : UTF-8 Plain Text
Заголовок : English SUB
Язык : English
Свернуть

"Знаете ли Вы, что..."
  • Съемки начались в Праге в конце февраля 2008 года.
  • На грим Гулей уходило до 7 часов.
  • Для каждого Гуля специалисты изготовили индивидуальные дентальные накладки и линзы. Грим создавался при помощи накладок из вспененного латекса и пакспеинта. Он отличался стойкостью и выдерживал более 15 часов съемок. Поскольку гримировалось все тело актеров, многие из них отказывались смывать его, мотивируя это тем, что на следующий день им вновь предстояло играть.
  • Образы Ведьмы и Рипера были созданы при помощи силиконовых накладок.
Свернуть
"Скриншоты"

Изображение
Изображение
Изображение
Изображение
Свернуть
Не в сети
Профиль  
 Добавлено: 2011-11-10 23:05 (спустя 9 месяцев)
Аватара пользователя
Стаж: 7 лет 5 месяцев
Сообщений: 136
Лайков: 2
:co_ol:
Не в сети
Профиль  
 Добавлено: 2013-06-25 15:15 (спустя 1 год 7 месяцев)
Аватара пользователя
Стаж: 8 лет 7 месяцев
Сообщений: 181
Спасибок: 313
Лайков: 1
Эх уже несколько месяцев выкачать не могу. Будьте добры встаньте на раздачу.
Не в сети
Профиль  
 Добавлено: 2013-06-25 17:34 (спустя 2 часа 19 минут)
Аватара пользователя
Стаж: 3 года 6 месяцев
Сообщений: 12
Спасибок: 13
Фильм супер
Не в сети
Профиль  
 Добавлено: 2013-08-19 18:43 (спустя 1 месяц 24 дня)
Аватара пользователя
Стаж: 7 лет 11 месяцев
Сообщений: 786
Спасибок: 25
Лайков: 9
:a_g_a: Хороший интересный фильм в копилку !
Не в сети
Профиль  
Начать новую темуОтветить на тему  [ Сообщений: 5 ] 
Вы не можете начинать темы
Вы не можете отвечать на сообщения
Вы не можете редактировать свои сообщения
Вы не можете удалять свои сообщения