Правила форума

  • В этом разделе создание новых тем Запрещено.
  • Для создания новых тем пользуйтесь Корневым разделом DVD и HD фильмы.
Начать новую темуОтветить на тему  [ Сообщений: 7 ] 
Торрент файл
Размер: 8.17 GB • Зарегистрирован: 2 года 3 месяца • Статус: Проверено
Скачан: 303 раза • Желающих скачать: 0 • Поблагодарили: 95 раз
 Раздают: 2  |  9 KB/s  ]   Качают: 0  |  0 KB/s  ] 
Сообщения
 Добавлено: 2014-08-27 09:30
Руководитель релиз-группы
Аватара пользователя
Стаж: 7 лет 2 месяца
Возраст: 4
Сообщений: 5213
Спасибок: 19351
Лайков: 2312
Соседи. На тропе войны / Neighbors

Изображение


Год выпуска: 2014
Страна: США
Жанр: Комедия
Продолжительность: 01:36:42
Перевод: Профессиональный (дубляж)

Режиссёр: Николас Столлер
В ролях: Сет Роген, Зак Эфрон, Роуз Бирн, Элиз Варгас, Зоя Варгас, Брайан Хаски, Айк Баринхолц, Карла Галло, Дэйв Франко, Хелстон Сейдж
Описание: Как известно, мужчины бывают двух типов: холостые и глубоко женатые. Первые молоды, мускулисты и точно магнит притягивают блондинок и шумных друзей. Вторые обитают дома, выращивают детей и поглощают сериалы по телеку. Обычно их пути не пересекаются. Но стоит им стать соседями, мужчины выходят на тропу войны.


Качество: BDRip (1080p)
Формат: MKV
Видео: MPEG-4 AVC, 9815 Кбит/с, 1920x800
Аудио #1: Русский (DTS, 6 ch, 768 Кбит/с), английский (DTS, 6 ch, 1510 Кбит/с) [Профессиональный (дубляж)]
Скриншоты
Изображение
Изображение
Изображение
Свернуть


MI
General
Unique ID : 204095791009272780406167783415073030052 (0x998B6B672870FA17B49034CF46B93FA4)
Complete name : D:\Фильмы\Sosed1.na.Tr0pe.2014.D.BDRip.1080p_.mkv
Format : Matroska
Format version : Version 2
File size : 8.17 GiB
Duration : 1h 36mn
Overall bit rate : 12.1 Mbps
Encoded date : UTC 2014-08-26 20:23:25
Writing application : mkvmerge v7.1.0 ('Good Love') 64bit built on Jul 27 2014 13:06:55
Writing library : libebml v1.3.0 + libmatroska v1.4.1
DURATION : 01:36:41.803000000
NUMBER_OF_FRAMES : 543919
NUMBER_OF_BYTES : 556973056
_STATISTICS_WRITING_APP : mkvmerge v7.1.0 ('Good Love') 64bit built on Jul 27 2014 13:06:55
_STATISTICS_WRITING_DATE_UTC : 2014-08-26 20:23:25
_STATISTICS_TAGS : BPS DURATION NUMBER_OF_FRAMES NUMBER_OF_BYTES

Video
ID : 1
Format : AVC
Format/Info : Advanced Video Codec
Format profile : High@L4.1
Format settings, CABAC : Yes
Format settings, ReFrames : 5 frames
Codec ID : V_MPEG4/ISO/AVC
Duration : 1h 36mn
Bit rate : 9 815 Kbps
Width : 1 920 pixels
Height : 800 pixels
Display aspect ratio : 2.40:1
Frame rate mode : Constant
Frame rate : 23.976 fps
Color space : YUV
Chroma subsampling : 4:2:0
Bit depth : 8 bits
Scan type : Progressive
Bits/(Pixel*Frame) : 0.267
Stream size : 6.47 GiB (79%)
Writing library : x264 core 142 r2453 ea0ca51
Encoding settings : cabac=1 / ref=5 / deblock=1:0:0 / analyse=0x3:0x133 / me=umh / subme=7 / psy=1 / psy_rd=1.00:0.00 / mixed_ref=1 / me_range=16 / chroma_me=1 / trellis=1 / 8x8dct=1 / cqm=0 / deadzone=21,11 / fast_pskip=0 / chroma_qp_offset=-2 / threads=12 / lookahead_threads=2 / sliced_threads=0 / nr=0 / decimate=1 / interlaced=0 / bluray_compat=0 / constrained_intra=0 / bframes=3 / b_pyramid=2 / b_adapt=1 / b_bias=0 / direct=1 / weightb=1 / open_gop=0 / weightp=2 / keyint=250 / keyint_min=23 / scenecut=40 / intra_refresh=0 / rc_lookahead=40 / rc=2pass / mbtree=1 / bitrate=9815 / ratetol=1.0 / qcomp=0.60 / qpmin=0 / qpmax=69 / qpstep=4 / cplxblur=20.0 / qblur=0.5 / ip_ratio=1.40 / aq=1:1.00
Language : English
Default : Yes
Forced : No
DURATION : 01:36:41.764000000
NUMBER_OF_FRAMES : 139103
NUMBER_OF_BYTES : 7116382582
_STATISTICS_WRITING_APP : mkvmerge v7.1.0 ('Good Love') 64bit built on Jul 27 2014 13:06:55
_STATISTICS_WRITING_DATE_UTC : 2014-08-26 20:23:25
_STATISTICS_TAGS : BPS DURATION NUMBER_OF_FRAMES NUMBER_OF_BYTES

Audio #1
ID : 2
Format : DTS
Format/Info : Digital Theater Systems
Mode : 16
Format settings, Endianness : Big
Codec ID : A_DTS
Duration : 1h 36mn
Bit rate mode : Constant
Bit rate : 1 509 Kbps
Channel(s) : 6 channels
Channel positions : Front: L C R, Side: L R, LFE
Sampling rate : 48.0 KHz
Bit depth : 24 bits
Compression mode : Lossy
Stream size : 1.02 GiB (12%)
Language : English
Default : No
Forced : No

Audio #2
ID : 3
Format : DTS
Format/Info : Digital Theater Systems
Mode : 16
Format settings, Endianness : Big
Codec ID : A_DTS
Duration : 1h 36mn
Bit rate mode : Constant
Bit rate : 768 Kbps
Channel(s) : 6 channels
Channel positions : Front: L C R, Side: L R, LFE
Sampling rate : 48.0 KHz
Bit depth : 24 bits
Compression mode : Lossy
Stream size : 531 MiB (6%)
Language : Russian
Default : Yes
Forced : No

Menu
00:00:00.000 : en:00:00:00.000
00:05:26.785 : en:00:05:26.785
00:08:42.188 : en:00:08:42.188
00:12:29.791 : en:00:12:29.791
00:17:32.385 : en:00:17:32.385
00:22:19.046 : en:00:22:19.046
00:25:34.992 : en:00:25:34.992
00:30:49.222 : en:00:30:49.222
00:35:11.026 : en:00:35:11.026
00:41:16.891 : en:00:41:16.891
00:46:14.230 : en:00:46:14.230
00:49:23.586 : en:00:49:23.586
00:54:13.250 : en:00:54:13.250
01:00:18.740 : en:01:00:18.740
01:04:47.175 : en:01:04:47.175
01:10:16.254 : en:01:10:16.254
01:14:24.085 : en:01:14:24.085
01:18:36.670 : en:01:18:36.670
01:26:15.170 : en:01:26:15.170
01:31:06.503 : en:01:31:06.503
Свернуть
Не в сети
Профиль  
 Добавлено: 2014-08-30 14:01 (спустя 3 дня)
Кинокомментатор
Аватара пользователя
Стаж: 9 лет 1 месяц
Сообщений: 1332
Лайков: 54
Позитивно!) ОЧень!) и круто сделано) всё ближе к реальности!) смешно и по семейному и по отвязному) как раз для тех кто женился или думает об этом до 30...
7/10
Не в сети
Профиль  
 Добавлено: 2014-08-30 17:10 (спустя 3 часа)
Стаж: 4 года 6 месяцев
Сообщений: 1
Почему перевода нет?
Не в сети
Профиль  
 Добавлено: 2014-08-30 18:12 (спустя 1 час 2 минуты)
Аватара пользователя
Стаж: 8 лет 6 месяцев
Возраст: 28
Сообщений: 873
Спасибок: 893
Лайков: 7
Дорожку выбери другую
у меня тоже по дефолту включилась анг.

фильм говно


юмор пендосов уже достал такой,как в этом фильме
Не в сети
Профиль  
 Добавлено: 2014-08-31 11:35 (спустя 17 часов)
Аватара пользователя
Стаж: 8 лет 10 месяцев
Сообщений: 1170
Спасибок: 1294
Лайков: 7
ну не нравится мне этот Сет Роген в любом комедийном контексте
Не в сети
Профиль  
 Добавлено: 2014-08-31 12:24 (спустя 48 минут)
Аватара пользователя
Стаж: 8 лет 2 месяца
Сообщений: 1776
Спасибок: 2301
Лайков: 22
Многого, что было в трейлерах нет в фильме, ну и опять члены.


Изображение

Изображение
Не в сети
Профиль  
 Добавлено: 2014-09-14 09:08 (спустя 13 дней)
Аватара пользователя
Стаж: 8 лет 7 месяцев
Сообщений: 340
Спасибок: 22
Лайков: 3
Дерьмо редкостное!
Не в сети
Профиль  
Начать новую темуОтветить на тему  [ Сообщений: 7 ] 
Вы не можете начинать темы
Вы не можете отвечать на сообщения
Вы не можете редактировать свои сообщения
Вы не можете удалять свои сообщения