Правила форума

  • В этом разделе создание новых тем Запрещено.
  • Для создания новых тем пользуйтесь Корневым разделом DVD и HD фильмы.
Начать новую темуОтветить на тему  [ Сообщений: 3 ] 
Торрент файл
Размер: 6.55 GB • Зарегистрирован: 5 лет 3 месяца • Статус: Проверено
Скачан: 28 раз • Желающих скачать: 0 • Поблагодарили: 8 раз
 Раздают: 1  |  0 KB/s  ]   Качают: 0  |  0 KB/s  ] 
Сообщения
 Добавлено: 2011-09-06 20:57
Модератор релиз-группы
Аватара пользователя
Стаж: 9 лет 1 месяц
Возраст: 97
Сообщений: 11660
Спасибок: 6534
Лайков: 269
Совершенно секретно! / Top Secret!

Изображение


Год выпуска: 1984
Страна: сша
Жанр: комедия
Продолжительность: 01:26:10
Перевод: Профессиональный закадровый, версия НТВ+
Профессиональный закадровый, версия Премьер Видео/VHS
Авторский - Леонида Володарского
Авторский - Юрия Живова
Авторский - Михаила Иванова
Оригинальная дорожка
Cубтитры : Русские , английские

Режиссёр: Джим Абрахамс, Дэвид Цукер, Джерри Цукер
В ролях: Вэл Килмер, Люси Гаттеридж, Омар Шариф, Майкл Гаф, Кристофер Вилльерс
Описание: Пародия на шпионские фильмы. Восточная Германия времен «холодной войны». Здесь военщина замышляет коварный план по уничтожению кораблей НАТО, для чего похищает ученого доктора Фламонда, запирает его в темнице, заставляя сотворить мину «Поларис». Прикрытием для преступных замыслов служит международный фестиваль, на который приглашают артистов из разных стран.
Из Америки приезжает рок-певец Ник Риверс и знакомится с очаровательной Хиллари — дочерью Фламонда. Она — участник подпольного сопротивления, к которому привлекает и Ника. Им удается освободить ученого, выявить предателя в своих рядах и сорвать коварные планы вояк. Мир спасен.

Изображение
Качество: HDTV
Формат: mkv
Видео кодек: MPEG-4 (AVC)
Аудио кодек: AC3 (Dolby Digital)
Видео: MPEG-4 AVC Video / 1920х1080 / 50 fps / ~ 9 521 Kbps
Аудио 1: Russian / Dolby Digital Audio / 2.0 / 48 kHz / 192 kbps - профессиональный закадровый, версия НТВ+
Аудио 2: Russian / Dolby Digital Audio / 2.0 / 48 kHz / 192 kbps - профессиональный закадровый, версия Премьер Видео/VHS
Аудио 3: Russian / Dolby Digital Audio / 2.0 / 48 kHz / 192 kbps - авторский Леонида Володарского
Аудио 4: Russian / Dolby Digital Audio / 2.0 / 48 kHz / 192 kbps - авторский Юрия Живова
Аудио 5: Russian / Dolby Digital Audio / 2.0 / 48 kHz / 192 kbps - авторский Михаила Иванова
Аудио 6: English / Dolby Digital Audio / 2.0 / 48 kHz / 192 kbps - оригинальная дорожка
Cубтитры : Русские , английские
Скриншоты
Изображение

Изображение

Изображение

Изображение

Изображение
Свернуть

Mi
Format : Matroska
Format version : Version 2
File size : 6.55 GiB
Duration : 1h 26mn
Overall bit rate : 10.9 Mbps
Encoded date : UTC 2011-09-06 17:47:53
Writing application : mkvmerge v4.9.1 ('Ich will') сборка от Jul 11 2011 23:53:15
Writing library : libebml v1.2.1 + libmatroska v1.1.1

Video
ID : 1
Format : AVC
Format/Info : Advanced Video Codec
Format profile : High@L4.0
Format settings, CABAC : Yes
Format settings, ReFrames : 4 frames
Format settings, GOP : M=1, N=48
Codec ID : V_MPEG4/ISO/AVC
Duration : 1h 26mn
Bit rate mode : Variable
Bit rate : 9 521 Kbps
Maximum bit rate : 40.0 Mbps
Width : 1 920 pixels
Height : 1 080 pixels
Display aspect ratio : 16:9
Frame rate : 50.000 fps
Original frame rate : 25.000 fps
Color space : YUV
Chroma subsampling : 4:2:0
Bit depth : 8 bits
Scan type : Interlaced
Scan order : Top Field First
Bits/(Pixel*Frame) : 0.092
Stream size : 5.73 GiB (87%)
Color primaries : BT.709-5, BT.1361, IEC 61966-2-4, SMPTE RP177
Transfer characteristics : BT.709-5, BT.1361
Matrix coefficients : BT.709-5, BT.1361, IEC 61966-2-4 709, SMPTE RP177

Audio #1
ID : 2
Format : AC-3
Format/Info : Audio Coding 3
Mode extension : CM (complete main)
Codec ID : A_AC3
Duration : 1h 26mn
Bit rate mode : Constant
Bit rate : 192 Kbps
Channel(s) : 2 channels
Channel positions : Front: L R
Sampling rate : 48.0 KHz
Bit depth : 16 bits
Compression mode : Lossy
Stream size : 118 MiB (2%)
Title : Многоголосый НТВ+
Language : Russian

Audio #2
ID : 3
Format : AC-3
Format/Info : Audio Coding 3
Mode extension : CM (complete main)
Codec ID : A_AC3
Duration : 1h 26mn
Bit rate mode : Constant
Bit rate : 192 Kbps
Channel(s) : 2 channels
Channel positions : Front: L R
Sampling rate : 48.0 KHz
Bit depth : 16 bits
Compression mode : Lossy
Stream size : 118 MiB (2%)
Title : Многоголосый Премьер Видео
Language : Russian

Audio #3
ID : 4
Format : AC-3
Format/Info : Audio Coding 3
Mode extension : CM (complete main)
Codec ID : A_AC3
Duration : 1h 26mn
Bit rate mode : Constant
Bit rate : 192 Kbps
Channel(s) : 2 channels
Channel positions : Front: L R
Sampling rate : 48.0 KHz
Bit depth : 16 bits
Compression mode : Lossy
Stream size : 118 MiB (2%)
Title : Леонид Володарский
Language : Russian

Audio #4
ID : 5
Format : AC-3
Format/Info : Audio Coding 3
Mode extension : CM (complete main)
Codec ID : A_AC3
Duration : 1h 26mn
Bit rate mode : Constant
Bit rate : 192 Kbps
Channel(s) : 2 channels
Channel positions : Front: L R
Sampling rate : 48.0 KHz
Bit depth : 16 bits
Compression mode : Lossy
Stream size : 118 MiB (2%)
Title : Юрий Живов
Language : Russian

Audio #5
ID : 6
Format : AC-3
Format/Info : Audio Coding 3
Mode extension : CM (complete main)
Codec ID : A_AC3
Duration : 1h 26mn
Bit rate mode : Constant
Bit rate : 192 Kbps
Channel(s) : 2 channels
Channel positions : Front: L R
Sampling rate : 48.0 KHz
Bit depth : 16 bits
Compression mode : Lossy
Stream size : 118 MiB (2%)
Title : Михаил Иванов
Language : Russian

Audio #6
ID : 7
Format : AC-3
Format/Info : Audio Coding 3
Mode extension : CM (complete main)
Codec ID : A_AC3
Duration : 1h 26mn
Bit rate mode : Constant
Bit rate : 192 Kbps
Channel(s) : 2 channels
Channel positions : Front: L R
Sampling rate : 48.0 KHz
Bit depth : 16 bits
Compression mode : Lossy
Stream size : 118 MiB (2%)
Language : English

Text #1
ID : 8
Format : PGS
Muxing mode : zlib
Codec ID : S_HDMV/PGS
Codec ID/Info : The same subtitle format used on BDs/HD-DVDs

Text #2
ID : 9
Format : PGS
Muxing mode : zlib
Codec ID : S_HDMV/PGS
Codec ID/Info : The same subtitle format used on BDs/HD-DVDs

Свернуть
Не в сети
Профиль  
 Добавлено: 2011-10-31 21:02 (спустя 1 месяц 25 дней)
Стаж: 7 лет 4 месяца
Сообщений: 14
Лучше фильма не видел. Не шучу.
Не в сети
Профиль  
 Добавлено: 2011-11-05 11:44 (спустя 4 дня)
Стаж: 6 лет 2 месяца
Сообщений: 3
Народ дайте скорости заранее спасибо.
Не в сети
Профиль  
Начать новую темуОтветить на тему  [ Сообщений: 3 ] 
Вы не можете начинать темы
Вы не можете отвечать на сообщения
Вы не можете редактировать свои сообщения
Вы не можете удалять свои сообщения
cron