Правила форума

  • В этом разделе создание новых тем Запрещено.
  • Для создания новых тем пользуйтесь Корневым разделом DVD и HD фильмы.
Начать новую темуОтветить на тему  [ 1 сообщение ] 
Торрент файл
Размер: 8.85 GB • Зарегистрирован: 4 года 1 месяц • Статус: Проверено
Скачан: 16 раз • Желающих скачать: 0 • Поблагодарили: 8 раз
 Раздают: 0  |  0 KB/s  ]   Качают: 0  |  0 KB/s  ] 
 Полного источника не было 3 года 2 месяца 
Сообщения
 Добавлено: 2012-10-14 12:45
Top-releaser
Стаж: 4 года 11 месяцев
Сообщений: 311
Спасибок: 3511
Лайков: 2
Изображение

Год выпуска: 2011
Страна: США
Слоган: «Today Is The First Day... Of The Rest Of His Weekend.»

Жанр: комедия
Продолжительность: 01:26:56
Перевод: Профессиональный (многоголосый, закадровый)
Оригинал: английский
Субтитры: русские, английские

Режиссер: Мигель Артета / Miguel Arteta
Сценарий: Фил Джонстон / Phil Johnston
Продюсер: Джим Бурк / Jim Burke, Александр Пэйн / Alexander Payne, Джим Тейлор / Jim Taylor, Брайан Белл / Brian Bell, Эд Хелмс / Ed Helms
Оператор: Чуи Чавез / Chuy Chávez
Композитор: Кристоф Бек / Christophe Beck

В ролях: Эд Хелмс (Tim Lippe), Джон Си Райли (Dean Ziegler), Энн Хеч (Joan Ostrowski-Fox), Исайя Уитлок мл. (Ronald Wilkes), Стивен Рут (Bill Krogstad), Кертвуд Смит (Orin Helgesson), Алиа Шокат (Bree), Томас Леннон (Roger Lemke), Роб Кордри (Gary), Майк О’Мэлли (Mike Pyle), Сигурни Уивер (Macy Vanderhei), Инга Р. Уилсон (Gwen Lemke)
Дублёры: Алексей Мясников (Tim Lippe), Пётр Иващенко (Dean Ziegler), Татьяна Шитова (Joan Ostrowski-Fox), Александр Груздев (Ronald Wilkes), Александр Новиков (Bill Krogstad), Олег Форостенко (Orin Helgesson), Наталья Грачева (Bree), Диомид Виноградов (Roger Lemke), Константин Карасик (Mike Pyle), Любовь Германова (Macy Vanderhei), Вероника Саркисова (Woman Getting Off Plane)

Сборы в США: $6 861 102
Сборы в России: $93 999
Мировая премьера: 23 января 2011

Описание: После того, как его коллега умирает от асфиксии во время акта самоудовлетворения, наивный провинциал из захолустья занимает его место в райцентре, теряя голову от соблазнов «большого города», постепенно выходя из раковины и раскрывая махинацию по отмывке денег с участием своего нанимателя.
Рейтинг
kinopoisk.ru: 5.005 (359)
imdb.com: 6.50 (10 334)
Качество: BDRip
Формат: Matroska

Видео: AVC; 1920x1040 (16:9); 12674 Kbps; 23,976 fps; 0,265 bpp
Аудио №1: Russian; AC3; 384 Kbps; CBR; 6 ch; 16 bit
Аудио №2: English; DTS; 1509 Kbps; CBR; 6 ch; 24 bit
MediaInfo
General
Unique ID : 225245213706668993297613696512587453350 (0xA974A672E6C8154A97F0923CF24FD3A6)
Format : Matroska
Format version : Version 2
File size : 8.85 GiB
Duration : 1h 26mn
Overall bit rate : 14.6 Mbps
Encoded date : UTC 2011-10-20 15:30:06
Writing application : mkvmerge v5.0.1 ('Es ist Sommer') built on Oct 9 2011 11:55:43
Writing library : libebml v1.2.2 + libmatroska v1.3.0
Video #1
ID : 1
Format : AVC
Format/Info : Advanced Video Codec
Format profile : High@L4.1
Format settings, CABAC : Yes
Format settings, ReFrames : 4 frames
Codec ID : V_MPEG4/ISO/AVC
Duration : 1h 26mn
Bit rate : 12.7 Mbps
Width : 1 920 pixels
Height : 1 040 pixels
Display aspect ratio : 16:9
Frame rate : 23.976 fps
Color space : YUV
Chroma subsampling : 4:2:0
Bit depth : 8 bits
Scan type : Progressive
Bits/(Pixel*Frame) : 0.265
Stream size : 7.53 GiB (85%)
Writing library : x264 core 115 r1995 c1e60b9
Encoding settings : cabac=1 / ref=4 / deblock=1:-1:-2 / analyse=0x3:0x113 / me=umh / subme=10 / psy=1 / psy_rd=1.00:0.05 / mixed_ref=1 / me_range=54 / chroma_me=1 / trellis=2 / 8x8dct=1 / cqm=0 / deadzone=21,11 / fast_pskip=1 / chroma_qp_offset=-3 / threads=12 / sliced_threads=0 / nr=0 / decimate=1 / interlaced=0 / bluray_compat=0 / constrained_intra=0 / bframes=6 / b_pyramid=2 / b_adapt=2 / b_bias=0 / direct=1 / weightb=1 / open_gop=0 / weightp=2 / keyint=250 / keyint_min=24 / scenecut=50 / intra_refresh=0 / rc_lookahead=160 / rc=2pass / mbtree=1 / bitrate=12674 / ratetol=1.0 / qcomp=0.70 / qpmin=1 / qpmax=61 / qpstep=4 / cplxblur=20.0 / qblur=0.5 / vbv_maxrate=48000 / vbv_bufsize=40000 / nal_hrd=none / ip_ratio=1.40 / aq=1:1.10
Language : English
Audio #2
ID : 2
Format : AC-3
Format/Info : Audio Coding 3
Mode extension : CM (complete main)
Codec ID : A_AC3
Duration : 1h 26mn
Bit rate mode : Constant
Bit rate : 384 Kbps
Channel(s) : 6 channels
Channel positions : Front: L C R, Side: L R, LFE
Sampling rate : 48.0 KHz
Bit depth : 16 bits
Compression mode : Lossy
Stream size : 239 MiB (3%)
Language : Russian
Audio #3
ID : 3
Format : DTS
Format/Info : Digital Theater Systems
Codec ID : A_DTS
Duration : 1h 26mn
Bit rate mode : Constant
Bit rate : 1 510 Kbps
Channel(s) : 6 channels
Channel positions : Front: L C R, Side: L R, LFE
Sampling rate : 48.0 KHz
Bit depth : 24 bits
Compression mode : Lossy
Stream size : 939 MiB (10%)
Language : English
Text #4
ID : 4
Format : UTF-8
Codec ID : S_TEXT/UTF8
Codec ID/Info : UTF-8 Plain Text
Language : Russian
Text #5
ID : 5
Format : VobSub
Codec ID : S_VOBSUB
Codec ID/Info : The same subtitle format used on DVDs
Language : English
Свернуть
Скриншоты
Изображение
Изображение
Изображение
Свернуть

Не в сети
Профиль  
Начать новую темуОтветить на тему  [ 1 сообщение ] 
Вы не можете начинать темы
Вы не можете отвечать на сообщения
Вы не можете редактировать свои сообщения
Вы не можете удалять свои сообщения