Правила форума

  • В этом разделе создание новых тем Запрещено.
  • Для создания новых тем пользуйтесь Корневым разделом DVD и HD фильмы.
Начать новую темуОтветить на тему  [ 1 сообщение ] 
Торрент файл
Размер: 5.08 GB • Зарегистрирован: 4 года • Статус: Проверено
Скачан: 23 раза • Желающих скачать: 0 • Поблагодарили: 6 раз
 Раздают: 0  |  0 KB/s  ]   Качают: 0  |  0 KB/s  ] 
 Полного источника не было 3 года 2 месяца 
Сообщения
 Добавлено: 2012-11-29 07:47
Модератор
Аватара пользователя
Стаж: 6 лет 10 месяцев
Возраст: 33
Сообщений: 5908
Спасибок: 61252
Лайков: 3540
Изображение

Спаркл
Sparkle


Год выпуска: 2012
Страна: США
Слоган: «Celebrate the legend.»
Жанр: драма, музыка
Продолжительность: 01:49:13
Перевод: Профессиональный (многоголосый, закадровый) Лицензия
Режиссер: Салим Акил
Сценарий: Мара Брок Акил, Ховард Розенман
Продюсер: Кертис Уоллес, Дебра Мартин Чейз, T.D. Jakes, Салим Акил, Мара Брок Акил
Оператор: Анастас Н. Микос
Композитор: Салаам Реми
В ролях: Джордин Спаркс, Уитни Хьюстон, Дерек Люк, Майк Эппс, Кармен Эджого, Тика Самптер, Омари Хардвик, Си-Ло, Кертис Армстронг, Терренс Дженкинс, Тамела Дж. Манн, Майкл Бич
Бюджет: $14 000 000
Сборы в США: $24 397 469
Мировая премьера: 17 августа 2012
Релиз на DVD: 4 декабря 2012, «Columbia/Sony»
Релиз на Blu-ray: 4 декабря 2012, «Columbia/Sony»
Описание: Действие разворачивается в 60-е годы, когда три сестры организовали девичью группу и вскоре стали звездами Мотауна. Но у славы есть и другая сторона - дружная семья постепенно начинает разваливаться.

Изображение User Rating: 6.968 (31)
Изображение User Rating: 4.60 (1 547)
MPAA: PG-13 - Детям до 13 лет просмотр не желателен
Раздача группы: Изображение
Качество: BDRip, 720p
Формат: Matroska
Видео: MPEG-4 AVC, ~4 Mбит/с, 1280x534, ReFrames: 12 frames [EbP]
Аудио №1: Русский (AC3, 6 ch, 640 Кбит/с), английский (DTS, 6 ch, 1510 Кбит/с)
Субтитры: Русские, английские, французские
mediainfo
Format : Matroska
Format version : Version 2
File size : 5.08 GiB
Duration : 1h 56mn
Overall bit rate : 6 251 Kbps
Movie name : _CMEGRoup_BLUEBIRD
Encoded date : UTC 2012-11-28 18:39:20
Writing application : mkvmerge v5.8.0 ('No Sleep / Pillow') built on Sep 2 2012 15:37:04
Writing library : libebml v1.2.3 + libmatroska v1.3.0

Video
ID : 1
Format : AVC
Format/Info : Advanced Video Codec
Format profile : High@L4.1
Format settings, CABAC : Yes
Format settings, ReFrames : 12 frames
Codec ID : V_MPEG4/ISO/AVC
Duration : 1h 56mn
Bit rate : 3 977 Kbps
Width : 1 280 pixels
Height : 534 pixels
Display aspect ratio : 2.40:1
Frame rate : 23.976 fps
Color space : YUV
Chroma subsampling : 4:2:0
Bit depth : 8 bits
Scan type : Progressive
Bits/(Pixel*Frame) : 0.243
Stream size : 3.23 GiB (64
Title : Sparkle.2012
Language : English
Default : Yes
Forced : No

Audio #1
ID : 2
Format : AC-3
Format/Info : Audio Coding 3
Mode extension : CM (complete main)
Format settings, Endianness : Big
Codec ID : A_AC3
Duration : 1h 56mn
Bit rate mode : Constant
Bit rate : 640 Kbps
Channel(s) : 6 channels
Channel positions : Front: L C R, Side: L R, LFE
Sampling rate : 48.0 KHz
Bit depth : 16 bits
Compression mode : Lossy
Stream size : 532 MiB (10
Language : Russian
Default : Yes
Forced : No

Audio #2
ID : 3
Format : DTS
Format/Info : Digital Theater Systems
Codec ID : A_DTS
Duration : 1h 56mn
Bit rate mode : Constant
Bit rate : 1 510 Kbps
Channel(s) : 6 channels
Channel positions : Front: L C R, Side: L R, LFE
Sampling rate : 48.0 KHz
Bit depth : 24 bits
Compression mode : Lossy
Stream size : 1.23 GiB (24
Language : English
Default : No
Forced : No

Text #1
ID : 4
Format : UTF-8
Codec ID : S_TEXT/UTF8
Codec ID/Info : UTF-8 Plain Text
Language : Russian
Default : No
Forced : No

Text #2
ID : 5
Format : UTF-8
Codec ID : S_TEXT/UTF8
Codec ID/Info : UTF-8 Plain Text
Language : English
Default : Yes
Forced : No

Text #3
ID : 6
Format : UTF-8
Codec ID : S_TEXT/UTF8
Codec ID/Info : UTF-8 Plain Text
Language : English
Default : No
Forced : No

Text #4
ID : 7
Format : UTF-8
Codec ID : S_TEXT/UTF8
Codec ID/Info : UTF-8 Plain Text
Language : English
Default : No
Forced : No

Text #5
ID : 8
Format : UTF-8
Codec ID : S_TEXT/UTF8
Codec ID/Info : UTF-8 Plain Text
Language : French
Default : No
Forced : No

Menu
00:00:00.000 : en:00:00:00.000
00:08:22.669 : en:00:08:22.669
00:14:27.700 : en:00:14:27.700
00:22:43.988 : en:00:22:43.988
00:28:07.060 : en:00:28:07.060
00:33:57.369 : en:00:33:57.369
00:38:24.177 : en:00:38:24.177
00:43:57.051 : en:00:43:57.051
00:52:52.294 : en:00:52:52.294
00:56:56.455 : en:00:56:56.455
01:07:54.862 : en:01:07:54.862
01:16:43.682 : en:01:16:43.682
01:21:00.230 : en:01:21:00.230
01:25:01.513 : en:01:25:01.513
01:33:31.648 : en:01:33:31.648
01:40:31.108 : en:01:40:31.108
Свернуть
Скриншоты

Изображение
Изображение
Изображение
Свернуть
_________________
ИзображениеИзображение Изображение
Изображение
 tany1984 и di-ys1 нравится это.
Не в сети
Профиль  
Начать новую темуОтветить на тему  [ 1 сообщение ] 
Вы не можете начинать темы
Вы не можете отвечать на сообщения
Вы не можете редактировать свои сообщения
Вы не можете удалять свои сообщения