Правила форума

  • В этом разделе создание новых тем Запрещено.
  • Для создания новых тем пользуйтесь Корневым разделом DVD и HD фильмы.
Начать новую темуОтветить на тему  [ Сообщений: 3 ] 
Торрент файл
Размер: 7.59 GB • Зарегистрирован: 2 года 7 месяцев • Статус: T Временный релиз
Скачан: 30 раз • Желающих скачать: 0 • Поблагодарили: 15 раз
 Раздают: 0  |  0 KB/s  ]   Качают: 0  |  0 KB/s  ] 
 Полного источника не было 18 часов 
Сообщения
 Добавлено: 2014-04-13 16:17
Книголюб
Аватара пользователя
Стаж: 7 лет 2 месяца
Сообщений: 2823
Спасибок: 48823
Лайков: 73
Спаркс
Sparks

«What will it take to you kill you Mr. Sparks?»

Изображение


Год выпуска: 2013
Страна: США
Жанр: Боевик, триллер
Продолжительность: 01:38:22
Перевод: Любительский (многоголосый закадровый)

Режиссёр: Тодд Берроуз, Кристофер Фолино
В ролях: Чейз Уильямсон, Эшли Белл, Клэнси Браун, Джейк Бьюзи, Уильям Кэтт, Марина Скверсьяти, Клинт Ховард, Скотт Ринкер, Дэвид Соболев, Ларри Седар
Описание: После падения на Землю радиоактивного метеорита, некоторые люди получили удивительные, сверхчеловеческие способности. Один из таких «мутантов», Ян Спаркс, совершенно не считал себя героем, но после смерти родителей, вступил в отчаянную схватку с преступностью Нью-Йорка. Вместе с очаровательной Небесной Леди они составляют великолепную пару, которая быстро очищает город от головорезов. Но однажды они встречаются с чрезвычайно опасным противником.
Мировая премьера: 1 марта 2013
Изображение 5.143 28

Качество: HQRip 1080p
Формат: MKV
Видео кодек: H.264
Аудио кодек: DTS
Видео: 1920x1080 23.976fps 8 024 Kbps
Аудио #1: 48000Hz 6ch 1536kbps
MediaInfo
General
Unique ID : 227826613454459591355518883594072862872 (0xAB65CF485EB5BDC08BE14E419E89B098)
Complete name : K:\Torrent\Sparks.mkv
Format : Matroska
Format version : Version 4 / Version 2
File size : 7.59 GiB
Duration : 1h 38mn
Overall bit rate : 11.0 Mbps
Movie name : Release Group CINEMANIA
Encoded date : UTC 2014-04-12 18:16:39
Writing application : mkvmerge v6.8.0 ('Theme for Great Cities') 64bit built on Mar 2 2014 21:34:26
Writing library : libebml v1.3.0 + libmatroska v1.4.1

Video
ID : 1
Format : AVC
Format/Info : Advanced Video Codec
Format profile : High@L4.1
Format settings, CABAC : Yes
Format settings, ReFrames : 4 frames
Codec ID : V_MPEG4/ISO/AVC
Duration : 1h 38mn
Bit rate : 8 024 Kbps
Width : 1 920 pixels
Height : 1 080 pixels
Display aspect ratio : 16:9
Frame rate mode : Constant
Frame rate : 23.976 fps
Color space : YUV
Chroma subsampling : 4:2:0
Bit depth : 8 bits
Scan type : Progressive
Bits/(Pixel*Frame) : 0.161
Stream size : 5.36 GiB (71%)
Title : Release Group CINEMANIA
Writing library : x264 core 142 r2409 d6b4e63
Encoding settings : cabac=1 / ref=4 / deblock=1:0:0 / analyse=0x3:0x133 / me=umh / subme=8 / psy=1 / psy_rd=1.00:0.00 / mixed_ref=1 / me_range=16 / chroma_me=1 / trellis=1 / 8x8dct=1 / cqm=0 / deadzone=21,11 / fast_pskip=0 / chroma_qp_offset=-2 / threads=12 / lookahead_threads=2 / sliced_threads=0 / nr=0 / decimate=1 / interlaced=0 / bluray_compat=0 / constrained_intra=0 / bframes=3 / b_pyramid=2 / b_adapt=2 / b_bias=0 / direct=3 / weightb=1 / open_gop=0 / weightp=2 / keyint=250 / keyint_min=23 / scenecut=40 / intra_refresh=0 / rc_lookahead=50 / rc=2pass / mbtree=1 / bitrate=8024 / ratetol=1.0 / qcomp=0.60 / qpmin=0 / qpmax=69 / qpstep=4 / cplxblur=20.0 / qblur=0.5 / ip_ratio=1.40 / aq=1:1.00
Language : English
Default : Yes
Forced : No

Audio #1
ID : 2
Format : DTS
Format/Info : Digital Theater Systems
Mode : 16
Format settings, Endianness : Big
Codec ID : A_DTS
Duration : 1h 38mn
Bit rate mode : Constant
Bit rate : 1 510 Kbps
Channel(s) : 6 channels
Channel positions : Front: L C R, Side: L R, LFE
Sampling rate : 48.0 KHz
Bit depth : 24 bits
Compression mode : Lossy
Stream size : 1.04 GiB (14%)
Title : Влад и Снежиночка
Language : Russian
Default : Yes
Forced : Yes

Audio #2
ID : 3
Format : DTS
Format/Info : Digital Theater Systems
Mode : 16
Format settings, Endianness : Big
Codec ID : A_DTS
Duration : 1h 38mn
Bit rate mode : Constant
Bit rate : 1 510 Kbps
Channel(s) : 6 channels
Channel positions : Front: L C R, Side: L R, LFE
Sampling rate : 48.0 KHz
Bit depth : 24 bits
Compression mode : Lossy
Stream size : 1.04 GiB (14%)
Language : English
Default : No
Forced : No

Text
ID : 4
Format : UTF-8
Codec ID : S_TEXT/UTF8
Codec ID/Info : UTF-8 Plain Text
Language : English
Default : No
Forced : No

Menu
00:00:00.000 : en:00:00:00.000
00:19:45.476 : en:00:19:45.476
00:42:07.900 : en:00:42:07.900
01:03:00.026 : en:01:03:00.026
01:22:43.458 : en:01:22:43.458
01:33:19.844 : en:01:33:19.844


Свернуть

Скриншоты
Изображение
Изображение
Изображение
Свернуть
Не в сети
Профиль  
 Добавлено: 2014-04-26 10:36 (спустя 12 дней)
Аватара пользователя
Стаж: 4 года 10 месяцев
Возраст: 29
Сообщений: 86
Лайков: 1
ку всем.фильм 12 зарегин и не одного комма
Не в сети
Профиль  
 Добавлено: 2014-04-27 18:18 (спустя 1 день 7 часов)
Аватара пользователя
Стаж: 9 лет
Возраст: 30
Сообщений: 88
Спасибок: 275
Лайков: 2

salov.sid:

ку всем.фильм 12 зарегин и не одного комма
Все верно, этот фильм - редкостное низкокачественное говно!
Не в сети
Профиль  
Начать новую темуОтветить на тему  [ Сообщений: 3 ] 
Вы не можете начинать темы
Вы не можете отвечать на сообщения
Вы не можете редактировать свои сообщения
Вы не можете удалять свои сообщения