Правила форума

  • В этом разделе создание новых тем Запрещено.
  • Для создания новых тем пользуйтесь Корневым разделом DVD и HD фильмы.
Начать новую темуОтветить на тему  [ 1 сообщение ] 
Торрент файл
Размер: 6.69 GB • Зарегистрирован: 2 года 7 месяцев • Статус: Проверено
Скачан: 27 раз • Желающих скачать: 0 • Поблагодарили: 10 раз
 Раздают: 0  |  0 KB/s  ]   Качают: 0  |  0 KB/s  ] 
 Полного источника не было 1 год 1 месяц 
Сообщения
 Добавлено: 2014-04-05 07:31
Книголюб
Аватара пользователя
Стаж: 7 лет 2 месяца
Сообщений: 2823
Спасибок: 48823
Лайков: 73
Спецагенты на отдыхе
Mais qui a re-tué Pamela Rose?

Изображение


Год выпуска: 2012
Страна: Франция (LGM Productions, Gaumont, TF1 Films Production)
Жанр: комедия
Продолжительность: 01:37:55
Перевод: Профессиональный (двухголосый закадровый)

Режиссёр: Оливье Барру
В ролях: Кад Мерад, Оливье Барру, Омар Си, Лоран Лафитт, Одри Флеро, Гай Леклюиз, Филипп Лефевр, Лоуренс Арни, Ксавьер Летурнер, Ален Дуте
Описание: Дуглас Риппер когда-то служил в ФБР, но сейчас полностью отошел от дел. Однажды ему сообщают, что в деле, которое он давно расследовал, появились новые обстоятельства. У агента в отставке появляется хороший повод тряхнуть стариной, а заодно и повидаться со своим бывшим напарником Буллитом, которого он давно не видел. И хотя у этой непредсказуемой и чудаковатой парочки парочки талант оказываться в неловких положениях, вместе они неудержимы. Никто из них и не подозревает, что скоро им предстоит раскрыть коварное покушение на президента США.
Мировая премьера: 5 декабря 2012
Бюджет: €9 000 000

Качество: BDRip 720p
Формат: MKV
Видео кодек: H.264
Видео: 1920x816 24fps 8 077 Kbps
Аудио #1: Русский AC3 48000Hz stereo 192kbps
Аудио #2: Французский, DTS 48000Hz 6 channels 1 509 Kbps
MediaInfo
General
Unique ID : 216583180813018485609842543643860950382 (0xA2F06741261BC8098667A657FC1C5D6E)
Complete name : K:\Torrent\Agenti na otduhe.mkv
Format : Matroska
Format version : Version 4 / Version 2
File size : 6.69 GiB
Duration : 1h 37mn
Overall bit rate : 9 776 Kbps
Movie name : Release Group CINEMANIA
Encoded date : UTC 2014-04-03 21:04:50
Writing application : mkvmerge v6.8.0 ('Theme for Great Cities') 64bit built on Mar 2 2014 21:34:26
Writing library : libebml v1.3.0 + libmatroska v1.4.1

Video
ID : 1
Format : AVC
Format/Info : Advanced Video Codec
Format profile : High@L4.1
Format settings, CABAC : Yes
Format settings, ReFrames : 5 frames
Codec ID : V_MPEG4/ISO/AVC
Duration : 1h 37mn
Bit rate : 8 077 Kbps
Width : 1 920 pixels
Height : 816 pixels
Display aspect ratio : 2.35:1
Frame rate mode : Constant
Frame rate : 24.000 fps
Color space : YUV
Chroma subsampling : 4:2:0
Bit depth : 8 bits
Scan type : Progressive
Bits/(Pixel*Frame) : 0.215
Stream size : 5.39 GiB (81%)
Title : Release Group CINEMANIA
Writing library : x264 core 129 r2230 1cffe9f
Encoding settings : cabac=1 / ref=5 / deblock=1:0:0 / analyse=0x3:0x113 / me=umh / subme=8 / psy=1 / psy_rd=1.00:0.00 / mixed_ref=1 / me_range=16 / chroma_me=1 / trellis=1 / 8x8dct=1 / cqm=0 / deadzone=21,11 / fast_pskip=1 / chroma_qp_offset=-2 / threads=12 / lookahead_threads=2 / sliced_threads=0 / nr=0 / decimate=1 / interlaced=0 / bluray_compat=0 / constrained_intra=0 / bframes=3 / b_pyramid=2 / b_adapt=2 / b_bias=0 / direct=3 / weightb=1 / open_gop=0 / weightp=2 / keyint=240 / keyint_min=24 / scenecut=40 / intra_refresh=0 / rc_lookahead=50 / rc=2pass / mbtree=1 / bitrate=8077 / ratetol=1.0 / qcomp=0.60 / qpmin=0 / qpmax=69 / qpstep=4 / cplxblur=20.0 / qblur=0.5 / ip_ratio=1.40 / aq=1:1.00
Language : English
Default : Yes
Forced : No

Audio #1
ID : 2
Format : AC-3
Format/Info : Audio Coding 3
Mode extension : CM (complete main)
Format settings, Endianness : Big
Codec ID : A_AC3
Duration : 1h 37mn
Bit rate mode : Constant
Bit rate : 192 Kbps
Channel(s) : 2 channels
Channel positions : Front: L R
Sampling rate : 48.0 KHz
Bit depth : 16 bits
Compression mode : Lossy
Stream size : 134 MiB (2%)
Title : Нтв+
Language : Russian
Default : Yes
Forced : Yes

Audio #2
ID : 3
Format : DTS
Format/Info : Digital Theater Systems
Mode : 16
Format settings, Endianness : Big
Codec ID : A_DTS
Duration : 1h 37mn
Bit rate mode : Constant
Bit rate : 1 509 Kbps
Channel(s) : 6 channels
Channel positions : Front: L C R, Side: L R, LFE
Sampling rate : 48.0 KHz
Bit depth : 24 bits
Compression mode : Lossy
Stream size : 1.03 GiB (15%)
Language : French
Default : No
Forced : No

Menu
00:00:00.000 : en:00:00:00.000
00:08:32.125 : en:00:08:32.125
00:17:33.958 : en:00:17:33.958
00:24:19.875 : en:00:24:19.875
00:33:57.542 : en:00:33:57.542
00:38:49.750 : en:00:38:49.750
00:47:19.583 : en:00:47:19.583
00:52:33.292 : en:00:52:33.292
01:03:19.500 : en:01:03:19.500
01:14:26.750 : en:01:14:26.750
01:23:23.500 : en:01:23:23.500
01:32:11.667 : en:01:32:11.667


Свернуть

Скриншоты
Изображение
Изображение
Изображение
Изображение
Свернуть
Не в сети
Профиль  
Начать новую темуОтветить на тему  [ 1 сообщение ] 
Вы не можете начинать темы
Вы не можете отвечать на сообщения
Вы не можете редактировать свои сообщения
Вы не можете удалять свои сообщения